Lynyrd Skynyrd - Southern Knights (1996)
MP3 FLAC WMA APE HD

Lynyrd Skynyrd - Southern Knights (1996)

Artist: Lynyrd Skynyrd
Title Of Album: Southern Knights
Year Of Release: 1996
Label: CBH Records & SVP Recordings
Genre: Southern Rock
Quality: FLAC (tracks+.cue) + log
Bitrate: Lossless
Total Time: 01:22:19
Total Size: 575 Mb
Lynyrd Skynyrd is an American rock band, formed in Jacksonville, Florida in 1964. The band became prominent in the Southern United States in 1973, and rose to worldwide recognition. Three members and one road crew member died in an airplane crash in 1977; the band reformed in 1987 for a reunion tour with lead singer Ronnie Van Zant's younger brother Johnny as the frontman. Lynyrd Skynyrd continues to tour and record. Of its original members, only Gary Rossington remains with the band as of 2011. The band was inducted into the Rock and Roll Hall of Fame on March 13, 2006.
Tracklist:
01. Workin' For MCA 05:23
02. I Ain't The one 04:10
03. Saturday Night Special 05:46
04. Down South Junkin' 02:46
05. Double Trouble 04:18
06. Devil In The Bottle 03:55
07. "T" For Texas 08:39
08. What's Your Name 04:04
09. That Smell 07:25
СD2
01. Simple Man 07:55
02. Gimme Three Steps 06:17
03. Sweet Home Alabama 07:48
04. Free Bird 13:45
CD1
Exact Audio Copy V0.99 prebeta 5 from 4. May 2009
Отчёт EAC об извлечении, выполненном 6. января 2011, 15:57
Lynyrd Skynyrd / Southern Knights
Дисковод: TSSTcorpCDDVDW SH-S223C Adapter: 3 ID: 0
Режим чтения : Достоверность
Использование точного потока : Да
Отключение кэша аудио : Да
Использование указателей C2 : Нет
Коррекция смещения при чтении : 697
Способность читать области Lead-in и Lead-out : Нет
Заполнение пропущенных сэмплов тишиной : Да
Удаление блоков с тишиной в начале и конце : Нет
При вычислениях CRC использовались нулевые сэмплы : Нет
Интерфейс : Встроенный Win32-интерфейс для Win NT/2000
Обработка зазоров : Не обнаружено, добавлено к предыдущему треку
Выходной формат : Пользовательский кодировщик
Выбранный битрейт : 768 kBit/s
Качество : Высокий
Добавление ID3-тэга : Нет
Утилита сжатия : C:Program Files (x86)Exact Audio CopyFLACFLAC.EXE
Дополнительные параметры : -6 -V -T "ARTIST=%a" -T "TITLE=%t" -T "ALBUM=%g" -T "DATE=%y" -T "TRACKNUMBER=%n" -T "GENRE=%m" -T "COMMENT=%e" %s -o %d
TOC извлечённого CD
Трек | Старт | Длительность | Начальный сектор | Конечный сектор
---------------------------------------------------------------------
1 | 0:00.00 | 5:23.32 | 0 | 24256
2 | 5:23.32 | 4:10.68 | 24257 | 43074
3 | 9:34.25 | 5:46.07 | 43075 | 69031
4 | 15:20.32 | 2:46.20 | 69032 | 81501
5 | 18:06.52 | 4:18.50 | 81502 | 100901
6 | 22:25.27 | 3:55.68 | 100902 | 118594
7 | 26:21.20 | 8:39.20 | 118595 | 157539
8 | 35:00.40 | 4:04.62 | 157540 | 175901
9 | 39:05.27 | 7:25.50 | 175902 | 209326
Трек 1
Имя файла C:UserspomydorMusicWorkin' For MCA.wav
Пиковый уровень 98.8 %
Качество трека 99.9 %
CRC теста E48235BB
CRC копии E48235BB
Точное извлечение (достоверность 6) [9EE2C19A]
Копирование... OK
Трек 2
Имя файла C:UserspomydorMusicI Ain't The One.wav
Пиковый уровень 98.8 %
Качество трека 100.0 %
CRC теста C3E9E9BB
CRC копии C3E9E9BB
Точное извлечение (достоверность 6) [F7FE6F00]
Копирование... OK
Трек 3
Имя файла C:UserspomydorMusicSaturday Night Special.wav
Пиковый уровень 98.8 %
Качество трека 100.0 %
CRC теста D2FB25D4
CRC копии D2FB25D4
Точное извлечение (достоверность 6) [5114A475]
Копирование... OK
Трек 4
Имя файла C:UserspomydorMusicDown South Jukin'.wav
Пиковый уровень 98.8 %
Качество трека 100.0 %
CRC теста C4A1C971
CRC копии C4A1C971
Точное извлечение (достоверность 6) [B5E7F4D5]
Копирование... OK
Трек 5
Имя файла C:UserspomydorMusicDouble Trouble.wav
Пиковый уровень 98.8 %
Качество трека 99.9 %
CRC теста 710B73CC
CRC копии 710B73CC
Точное извлечение (достоверность 6) [CE3F25D0]
Копирование... OK
Трек 6
Имя файла C:UserspomydorMusicDevil In The Bottle.wav
Пиковый уровень 98.8 %
Качество трека 100.0 %
CRC теста F689C196
CRC копии F689C196
Точное извлечение (достоверность 6) [0B60AC71]
Копирование... OK
Трек 7
Имя файла C:UserspomydorMusic'T' For Texas.wav
Пиковый уровень 98.8 %
Качество трека 100.0 %
CRC теста 375F5BA4
CRC копии 375F5BA4
Точное извлечение (достоверность 6) [97FA5718]
Копирование... OK
Трек 8
Имя файла C:UserspomydorMusicWhat's Your Name.wav
Пиковый уровень 100.0 %
Качество трека 100.0 %
CRC теста 13E839B0
CRC копии 13E839B0
Точное извлечение (достоверность 6) [B3BF7D85]
Копирование... OK
Трек 9
Имя файла C:UserspomydorMusicThat Smell.wav
Пиковый уровень 98.8 %
Качество трека 99.9 %
CRC теста 6D1384BC
CRC копии 6D1384BC
Точное извлечение (достоверность 6) [0B756002]
Копирование... OK
Все треки извлечены точно
Ошибок не произошло
Конец отчёта
CD2
Exact Audio Copy V0.99 prebeta 5 from 4. May 2009
Отчёт EAC об извлечении, выполненном 6. января 2011, 17:09
Lynyrd Skynyrd / Southern Knights
Дисковод: TSSTcorpCDDVDW SH-S223C Adapter: 3 ID: 0
Режим чтения : Достоверность
Использование точного потока : Да
Отключение кэша аудио : Да
Использование указателей C2 : Нет
Коррекция смещения при чтении : 697
Способность читать области Lead-in и Lead-out : Нет
Заполнение пропущенных сэмплов тишиной : Да
Удаление блоков с тишиной в начале и конце : Нет
При вычислениях CRC использовались нулевые сэмплы : Нет
Интерфейс : Встроенный Win32-интерфейс для Win NT/2000
Обработка зазоров : Не обнаружено, добавлено к предыдущему треку
Выходной формат : Пользовательский кодировщик
Выбранный битрейт : 768 kBit/s
Качество : Высокий
Добавление ID3-тэга : Нет
Утилита сжатия : C:Program Files (x86)Exact Audio CopyFLACFLAC.EXE
Дополнительные параметры : -6 -V -T "ARTIST=%a" -T "TITLE=%t" -T "ALBUM=%g" -T "DATE=%y" -T "TRACKNUMBER=%n" -T "GENRE=%m" -T "COMMENT=%e" %s -o %d
TOC извлечённого CD
Трек | Старт | Длительность | Начальный сектор | Конечный сектор
---------------------------------------------------------------------
1 | 0:00.00 | 7:55.17 | 0 | 35641
2 | 7:55.17 | 6:17.33 | 35642 | 63949
3 | 14:12.50 | 7:48.35 | 63950 | 99084
4 | 22:01.10 | 13:45.10 | 99085 | 160969
Трек 1
Имя файла C:UserspomydorMusicSimple Man.wav
Пиковый уровень 98.8 %
Качество трека 100.0 %
CRC теста 2D613B4F
CRC копии 2D613B4F
Точное извлечение (достоверность 6) [936DAC55]
Копирование... OK
Трек 2
Имя файла C:UserspomydorMusicGimme Three Steps.wav
Пиковый уровень 98.8 %
Качество трека 100.0 %
CRC теста 74FBFCCC
CRC копии 74FBFCCC
Точное извлечение (достоверность 6) [373000AB]
Копирование... OK
Трек 3
Имя файла C:UserspomydorMusicSweet Home Alabama.wav
Пиковый уровень 98.8 %
Качество трека 100.0 %
CRC теста 4728FBFA
CRC копии 4728FBFA
Точное извлечение (достоверность 6) [B149C4CC]
Копирование... OK
Трек 4
Имя файла C:UserspomydorMusicFree Bird.wav
Пиковый уровень 98.8 %
Качество трека 100.0 %
CRC теста AC777BC6
CRC копии AC777BC6
Точное извлечение (достоверность 5) [354A7C9A]
Копирование... OK
Все треки извлечены точно
Ошибок не произошло
Конец отчёта
FileSonic
Wupload



Alternative download links

DOWNLOAD

Related MP3 FLAC to Lynyrd Skynyrd - Southern Knights (1996)
Feedback
All rights reserved.
WEBBG.com © 2000-2018