Frank Mantooth - Per-Se-Vere (1990)
MP3 FLAC WMA APE HD

Frank Mantooth - Per-Se-Vere (1990)

  • Genre: Music, Jazz, FLAC / APE
  • Formats: MP3 FLAC WMA HD APE
  • Album Size: 1419 mb.
  • Archive: ZIP RAR
Artist: Frank Mantooth
Title Of Album: Per-Se-Vere
Year Of Release: 1990
Label: Optimism
Genre: Bop, Hard Bop, Post-Bop
Quality: WavPack (image+.cue) + log
Bitrate: Lossless
Total Time: 00:45:30
Total Size: 268 Mb
A well-respected big band arranger, Frank Mantooth has written for a countless of orchestras and musicians since the early 1970's. His mother played piano and uncle was a violinist so Mantooth grew up with music.
Tracklist:
1. White Pontiac [06:08]
2. Mean to me [04:39]
3. Slow Dancin' [06:13]
4. People [06:47]
5. Fly Me To The Moon [05:24]
6. Darn That Dream [05:47]
7. Soon It's Gonna Rain [05:09]
8. Persevere [05:21]
Exact Audio Copy V0.99 prebeta 5 from 4. May 2009
EAC extraction logfile from 24. August 2009, 20:12
Frank Mantooth / Per-se-vere
Used drive : HL-DT-STDVDRAM GSA-4165B Adapter: 3 ID: 0
Read mode : Secure
Utilize accurate stream : Yes
Defeat audio cache : Yes
Make use of C2 pointers : No
Read offset correction : 667
Overread into Lead-In and Lead-Out : Yes
Fill up missing offset samples with silence : Yes
Delete leading and trailing silent blocks : No
Null samples used in CRC calculations : Yes
Used interface : Installed external ASPI interface
Used output format : Internal WAV Routines
Sample format : 44.100 Hz; 16 Bit; Stereo
Use compression offset : 0
TOC of the extracted CD
Track | Start | Length | Start sector | End sector
---------------------------------------------------------
1 | 0:00.00 | 6:08.25 | 0 | 27624
2 | 6:08.25 | 4:39.50 | 27625 | 48599
3 | 10:48.00 | 6:13.50 | 48600 | 76624
4 | 17:01.50 | 6:47.25 | 76625 | 107174
5 | 23:49.00 | 5:24.00 | 107175 | 131474
6 | 29:13.00 | 5:47.00 | 131475 | 157499
7 | 35:00.00 | 5:09.00 | 157500 | 180674
8 | 40:09.00 | 5:21.02 | 180675 | 204751
Range status and errors
Selected range
Filename C:Frank Mantooth - Per-se-vere.wav
Peak level 95.8 %
Range quality 99.9 %
Copy CRC 3AA6BA39
Copy OK
No errors occurred
End of status report
FileSonic
Wupload



Alternative download links

DOWNLOAD

Related MP3 FLAC to Frank Mantooth - Per-Se-Vere (1990)
Feedback
All rights reserved.
WEBBG.com © 2000-2018