Joe Cocker - The Ultimate Collection 1968-2003
MP3 FLAC WMA APE HD

Joe Cocker - The Ultimate Collection 1968-2003

Artist: Joe Cocker
Title Of Album: Joe Cocker - The Ultimate Collection 1968-2003
Year Of Release: December 1, 2003
Label: EMI
Genre: Soul, Blues, Jazz
Quality: FLAC
Bitrate: lossless-image +cue +log +COVERS
Total Size: 869 Mb
Joe Cocker "The Ultimate Collection 1968-2003", is the first Cocker CD compilation, to adequately cover his entire career since 1968 to 2003. With 30 tracks, this is a fine sampling of some of his biggest hits. This is the perfect CD for someone who is considering buying a Cocker Cd for the first time. Disc one is by far the stronger cd, with classic tracks like, "Feelin' Alright", "Unchain My Heart", "You Are So Beautiful", "The Letter", "When The Night Comes", "She Came In Through The Bathroom Window" and "Cry Me A river", just to name a few. Disc two has some nice tracks from his more recent efforts, like "Could You Be Loved", "The Simple Things", "Have A Little Faith", "Never Tear Us Apart" and a great take on Leonard Cohens "First We Take Manhatten". "With A little Help from My Friends", to "You Can Leave Your Hat On", they are all here to enjoy on 2 discs. The version that will be released in the US will be called "The Ultimate Joe Cocker", but will have only 20 tracks, but does contain his grammy nominated song with the Crusaders from 1981 "I'm So Glad I'm Standing Here Today". You can get this import, at a very reasonable price on Amazons used dealer network or e-bay. I paid $17.00 with S+H included on e-bay. His music sounds as good today, as it did back in the 1960's. Considering all that Cocker has been through during his career, and the fact he has long out distanced most of his 1960's contemporaries, makes him in my eyes a classic rock n roll treasure. This is one collection not to be missed for fans both old and new.
Tracklist:
CD 1:
1. Unchain My Heart
2. Feelin` Alright
3. Summer In The City
4. You Can Leave Your Hat On
5. Up Where We Belong Featuring Jennifer Warnes
6. You Are So Beautiful
7. With A Little Help From My Friends
8. Cry Me A River ( Live )
9. The Letter ( Live )
10. Delta Lady
11. Many Rivers To Cross
12. When The Night Comes
13. Night Calls
14. Don`t You Love Me Anymore
15. She Came In Through The Bathroom Window
Exact Audio Copy V0.99 prebeta 4 from 23. January 2008
Отчёт EAC об извлечении, выполненном 2. сентября 2009, 20:23
Joe Cocker / The Ultimate Collection - CD1
Дисковод: HL-DT-STDVD-RW GWA-4040N Adapter: 1 ID: 0
Режим чтения : Достоверность
Использование точного потока : Да
Отключение кэша аудио : Да
Использование указателей C2 : Нет
Коррекция смещения при чтении : 48
Способность читать области Lead-in и Lead-out : Нет
Заполнение пропущенных сэмплов тишиной : Да
Удаление блоков с тишиной в начале и конце : Нет
При вычислениях CRC использовались нулевые сэмплы : Да
Интерфейс : Установленный внешний ASPI-интерфейс
Выходной формат : Пользовательский кодировщик
Выбранный битрейт : 768 kBit/s
Качество : Высокий
Добавление ID3-тэга : Да
Утилита сжатия : C:Program FilesExact Audio CopyFLACFLAC.EXE
Дополнительные параметры : -6 -V -T "ARTIST=%a" -T "TITLE=%t" -T "ALBUM=%g" -T "DATE=%y" -T "TRACKNUMBER=%n" -T "GENRE=%m" -T "COMMENT=%e" %s -o %d
TOC извлечённого CD
Трек | Старт | Длительность | Начальный сектор | Конечный сектор
---------------------------------------------------------------------
1 | 0:00.00 | 5:04.69 | 0 | 22868
2 | 5:04.69 | 4:11.38 | 22869 | 41731
3 | 9:16.32 | 3:50.03 | 41732 | 58984
4 | 13:06.35 | 4:14.56 | 58985 | 78090
5 | 17:21.16 | 3:56.73 | 78091 | 95863
6 | 21:18.14 | 2:42.35 | 95864 | 108048
7 | 24:00.49 | 5:11.63 | 108049 | 131436
8 | 29:12.37 | 4:00.13 | 131437 | 149449
9 | 33:12.50 | 4:25.52 | 149450 | 169376
10 | 37:38.27 | 2:51.50 | 169377 | 182251
11 | 40:30.02 | 3:46.52 | 182252 | 199253
12 | 44:16.54 | 4:46.27 | 199254 | 220730
13 | 49:03.06 | 3:26.62 | 220731 | 236242
14 | 52:29.68 | 5:10.48 | 236243 | 259540
15 | 57:40.41 | 2:39.42 | 259541 | 271507
16 | 62:52.08 | 6:47.46 | 282908 | 313478
Характеристики диапазона извлечения и сообщения об ошибках
Выбранный диапазон
Имя файла d:Мои документыМоя музыкаJoe Cocker - The Ultimate Collection - 1968-2003Joe Cocker - The Ultimate Collection - CD 1Joe Cocker - The Ultimate Collection - CD1.wav
Пиковый уровень 100.0 %
Качество диапазона 100.0 %
CRC теста CDB6C266
CRC копии CDB6C266
Копирование... OK
Ошибок не произошло
Конец отчёта
CD 2:
1. Could You Be Loved
2. Civilized Man
3. First We Take Manhattan
4. The Simple Things
5. N`oublies Jamais
6. That`s All I Need To Know Difendero ( Live ) Featuring Eros Ramazzotti
7. Have A Little Faith In Me
8. Don`t Let The Sun Go Down On Me
9. Now That The Magic Has Gone
10. Sweet Lil` Woman
11. ( All I Know ) Feels Like Forever
12. My Father`s Son
13. Sorry Seems To Be The Hardest Word
14. Never Tear Us Apart
15. Ruby Lee
Exact Audio Copy V0.99 prebeta 4 from 23. January 2008
Отчёт EAC об извлечении, выполненном 2. сентября 2009, 19:31
Joe Cocker / The Ultimate Collection - CD2
Дисковод: HL-DT-STDVD-RW GWA-4040N Adapter: 1 ID: 0
Режим чтения : Достоверность
Использование точного потока : Да
Отключение кэша аудио : Да
Использование указателей C2 : Нет
Коррекция смещения при чтении : 48
Способность читать области Lead-in и Lead-out : Нет
Заполнение пропущенных сэмплов тишиной : Да
Удаление блоков с тишиной в начале и конце : Нет
При вычислениях CRC использовались нулевые сэмплы : Да
Интерфейс : Установленный внешний ASPI-интерфейс
Выходной формат : Пользовательский кодировщик
Выбранный битрейт : 768 kBit/s
Качество : Высокий
Добавление ID3-тэга : Да
Утилита сжатия : C:Program FilesExact Audio CopyFLACFLAC.EXE
Дополнительные параметры : -6 -V -T "ARTIST=%a" -T "TITLE=%t" -T "ALBUM=%g" -T "DATE=%y" -T "TRACKNUMBER=%n" -T "GENRE=%m" -T "COMMENT=%e" %s -o %d
TOC извлечённого CD
Трек | Старт | Длительность | Начальный сектор | Конечный сектор
---------------------------------------------------------------------
1 | 0:00.00 | 4:15.16 | 0 | 19140
2 | 4:15.16 | 3:53.74 | 19141 | 36689
3 | 8:09.15 | 3:44.64 | 36690 | 53553
4 | 11:54.04 | 4:46.65 | 53554 | 75068
5 | 16:40.69 | 4:41.27 | 75069 | 96170
6 | 21:22.21 | 4:03.18 | 96171 | 114413
7 | 25:25.39 | 4:16.63 | 114414 | 133676
8 | 29:42.27 | 5:31.03 | 133677 | 158504
9 | 35:13.30 | 4:41.53 | 158505 | 179632
10 | 39:55.08 | 4:03.48 | 179633 | 197905
11 | 43:58.56 | 4:42.30 | 197906 | 219085
12 | 48:41.11 | 4:31.34 | 219086 | 239444
13 | 53:12.45 | 4:00.18 | 239445 | 257462
14 | 57:12.63 | 4:04.59 | 257463 | 275821
15 | 61:17.47 | 7:44.72 | 275822 | 310693
16 | 71:34.44 | 7:41.68 | 322094 | 356736
Характеристики диапазона извлечения и сообщения об ошибках
Выбранный диапазон
Имя файла d:Мои документыМоя музыкаJoe Cocker - The Ultimate Collection - CD2Joe Cocker - The Ultimate Collection - CD2.wav
Пиковый уровень 100.0 %
Качество диапазона 100.0 %
CRC теста 3C2DC8D7
CRC копии 3C2DC8D7
Копирование... OK
Ошибок не произошло
Конец отчёта
Download Joe Cocker - The Ultimate Collection 1968-2003 :
Fileserve.com:
Hotfile.com
Uploading.com:
Pass: israbox.download
Thanks to the original Publicist "ViktorRush"
Please DO NOT MIRROR



Alternative download links



Related MP3 FLAC to Joe Cocker - The Ultimate Collection 1968-2003
Feedback
All rights reserved.
WEBBG.com © 2000-2018