Omara Portuondo Chucho Valdes - Omara Chucho (2011)
MP3 FLAC WMA APE HD

Omara Portuondo Chucho Valdes - Omara Chucho (2011)

Artist: Omara Portuondo & Chucho Valdes
Title Of Album: Omara & Chucho
Year Of Release: 2011
Label: World Village
Genre: Latin Jazz, World
Quality: FLAC (image+.cue) + log
Bitrate: Lossless
Total Time: 55:12
Total Size: 234 Mb
The collaboration between Chucho Valdes and Omara Portuondo is something special. Pianist, composer and arranger Valdes is the son of the legendary Bebo Valdes. The almost 70-year-old Cuban has been part of the music scene for over 55 years and formed his first jazz trio when he was just fifteen. Later, he created his famous Combo. Valdes was the first Cuban musician to bring the music of his homeland to European jazz festivals. He later formed the group Irakere with which he entered music history. At the North Sea Jazz Festival, Valdes will be on stage with his legendary countryman Omara Portuondo. The 80-year-old singer only truly became known in the Netherlands through her collaboration with the Buena Vista Social Club, but before that she had already made history with her singing with various well-known Cuban orchestras. After the success of the Buena Vista Social Club, Portuondo released a series of beautiful albums whose songs she has performed many times in the Netherlands. The collaboration between Valdes and Portuondo is pure music history in the making.
Tracklist:
1. Noche Cubana (Omara Solo)
2. Claro De Luna / Llanto De Luna
3. Y Decidete Mi Amor
4. Alma Mia
5. Me Acostumbre A Estar Sin Ti
6. Esta Tarde Vi Llover (feat. Wynton Marsalis)
7. Si Te Contrara
8. Huesito
9. Mis Sentimientos
10. Nuestra Cobardia
11. Babalu Aye
12. Recordare Tu Boca
13. Noche Cubana (Chucho Solo)
Exact Audio Copy V0.99 prebeta 4 from 23. January 2008
EAC extraction logfile from 22. May 2011, 16:33
Omara Portuondo & Chucho Valdes / Omara & Chucho
Used drive : HL-DT-STDVDRAM GSA-H42N Adapter: 0 ID: 1
Read mode : Secure
Utilize accurate stream : Yes
Defeat audio cache : Yes
Make use of C2 pointers : No
Read offset correction : 667
Overread into Lead-In and Lead-Out : No
Fill up missing offset samples with silence : Yes
Delete leading and trailing silent blocks : No
Null samples used in CRC calculations : Yes
Used interface : Native Win32 interface for Win NT & 2000
Used output format : User Defined Encoder
Selected bitrate : 320 kBit/s
Quality : High
Add ID3 tag : No
Command line compressor : C:Program FilesExact Audio CopyFlacflac.exe
Additional command line options : -8 -V -T "ARTIST=%a" -T "TITLE=%t" -T "ALBUM=%g" -T "DATE=%y" -T "TRACKNUMBER=%n" -T "GENRE=%m" -T "COMMENT=EAC Flac 1.1.4 -8" %s
TOC of the extracted CD
Track | Start | Length | Start sector | End sector
---------------------------------------------------------
1 | 0:00.00 | 1:09.34 | 0 | 5208
2 | 1:09.34 | 4:45.30 | 5209 | 26613
3 | 5:54.64 | 3:27.16 | 26614 | 42154
4 | 9:22.05 | 5:55.45 | 42155 | 68824
5 | 15:17.50 | 3:12.70 | 68825 | 83294
6 | 18:30.45 | 8:08.64 | 83295 | 119958
7 | 26:39.34 | 4:27.17 | 119959 | 140000
8 | 31:06.51 | 3:12.45 | 140001 | 154445
9 | 34:19.21 | 5:12.53 | 154446 | 177898
10 | 39:31.74 | 3:39.65 | 177899 | 194388
11 | 43:11.64 | 5:16.50 | 194389 | 218138
12 | 48:28.39 | 4:30.44 | 218139 | 238432
13 | 52:59.08 | 2:13.30 | 238433 | 248437
Range status and errors
Selected range
Filename D:My RipsOmara Portuondo & Chucho Valdes - Omara & Chucho.wav
Peak level 98.1 %
Range quality 100.0 %
Test CRC 6DD4C220
Copy CRC 6DD4C220
Copy OK
No errors occurred
AccurateRip summary
Track 1 not present in database
Track 2 not present in database
Track 3 not present in database
Track 4 not present in database
Track 5 not present in database
Track 6 not present in database
Track 7 not present in database
Track 8 not present in database
Track 9 not present in database
Track 10 not present in database
Track 11 not present in database
Track 12 not present in database
Track 13 not present in database
None of the tracks are present in the AccurateRip database
End of status report
FileSonic
Oron



Alternative download links

DOWNLOAD

Related MP3 FLAC to Omara Portuondo Chucho Valdes - Omara Chucho (2011)
Feedback
All rights reserved.
WEBBG.com © 2000-2018