Aradhna - Namaste Sate (2011)
MP3 FLAC WMA APE HD

Aradhna - Namaste Sate (2011)

Artist: Aradhna
Title Of Album: Namaste Sate
Year Of Release: 2011
Label: AradhnaMusic
Genre: New Age, World Fusion
Quality: FLAC (tracks+.cue) + log
Bitrate: Lossless
Total Time: 52:07
Total Size: 325 Mb
It is impossible to listen to Aradhna without a sense that something much deeper is brooding under the music. Spirituality is such an easy term to throw around when speaking about a thing you can’t explain but nonetheless feel. It’s a term that breeds ambiguity and at times, misunderstanding. Nonetheless it is a word that is necessary in describing the formation and subsequent work of Aradhna. After all, the name of the band is the spiritually charged Hindi term that means “adoration.” Popular music is often made to settle into the nooks and crannies of our daily humdrum, like an elixir against the pain of human existence. We drink it in and feel a bit better but we don’t expect it to change anything beyond our emotional state. Aradhna is a band with higher aspirations, making music that is centered around spiritual enlightenment and transformation while keeping ethnic integrity intact.
Tracklist:
01. Mukteshwar (5:23)
02. Holy River (5:03)
03. Yeshu Bhajan (4:26)
04. Namaste Sate (5:34)
05. Suralata (3:27)
06. Asato Ma (4:00)
07. Chosen (4:25)
08. Yeshu Muktinath (5:34)
09. Yapudhe (5:27)
10. Herana (4:24)
11. Apane Logo (4:20)
Exact Audio Copy V0.99 prebeta 5 from 4. May 2009
EAC extraction logfile from 7. March 2011, 15:44
Aradhna / Namaste Sate
Used drive : TSSTcorpDVD+-RW TS-H653A Adapter: 1 ID: 0
Read mode : Secure
Utilize accurate stream : Yes
Defeat audio cache : Yes
Make use of C2 pointers : No
Read offset correction : 6
Overread into Lead-In and Lead-Out : No
Fill up missing offset samples with silence : Yes
Delete leading and trailing silent blocks : No
Null samples used in CRC calculations : No
Used interface : Native Win32 interface for Win NT & 2000
Gap handling : Appended to previous track
Used output format : User Defined Encoder
Selected bitrate : 768 kBit/s
Quality : High
Add ID3 tag : No
Command line compressor : C:Archivos de programaExact Audio CopyFlacflac.exe
Additional command line options : -6 -V -T "ARTIST=%a" -T "TITLE=%t" -T "ALBUM=%g" -T "DATE=%y" -T "TRACKNUMBER=%n" -T "GENRE=%m" -T "COMMENT=%e" %s -o %d
TOC of the extracted CD
Track | Start | Length | Start sector | End sector
---------------------------------------------------------
1 | 0:00.00 | 5:23.18 | 0 | 24242
2 | 5:23.18 | 5:03.10 | 24243 | 46977
3 | 10:26.28 | 4:25.48 | 46978 | 66900
4 | 14:52.01 | 5:34.20 | 66901 | 91970
5 | 20:26.21 | 3:27.11 | 91971 | 107506
6 | 23:53.32 | 4:00.26 | 107507 | 125532
7 | 27:53.58 | 4:25.18 | 125533 | 145425
8 | 32:19.01 | 5:34.30 | 145426 | 170505
9 | 37:53.31 | 5:26.64 | 170506 | 195019
10 | 43:20.20 | 4:24.22 | 195020 | 214841
11 | 47:44.42 | 4:20.13 | 214842 | 234354
Track 1
Filename E:EACBTW SharingAradhna2011 - Namaste Sate1 - Mukteshwar.wav
Pre-gap length 0:00:02.00
Peak level 99.0 %
Track quality 100.0 %
Test CRC B3CD35AA
Copy CRC B3CD35AA
Track not present in AccurateRip database
Copy OK
Track 2
Filename E:EACBTW SharingAradhna2011 - Namaste Sate2 - Holy River.wav
Peak level 99.1 %
Track quality 100.0 %
Test CRC 9F2F0668
Copy CRC 9F2F0668
Track not present in AccurateRip database
Copy OK
Track 3
Filename E:EACBTW SharingAradhna2011 - Namaste Sate3 - Yeshu Bhajan.wav
Peak level 98.4 %
Track quality 99.9 %
Test CRC 5A046D85
Copy CRC 5A046D85
Track not present in AccurateRip database
Copy OK
Track 4
Filename E:EACBTW SharingAradhna2011 - Namaste Sate4 - Namaste Sate.wav
Peak level 99.1 %
Track quality 100.0 %
Test CRC 3AC2330A
Copy CRC 3AC2330A
Track not present in AccurateRip database
Copy OK
Track 5
Filename E:EACBTW SharingAradhna2011 - Namaste Sate5 - Suralata.wav
Peak level 98.6 %
Track quality 100.0 %
Test CRC 5D697507
Copy CRC 5D697507
Track not present in AccurateRip database
Copy OK
Track 6
Filename E:EACBTW SharingAradhna2011 - Namaste Sate6 - Asato Ma.wav
Peak level 99.0 %
Track quality 100.0 %
Test CRC EEAF8C3E
Copy CRC EEAF8C3E
Track not present in AccurateRip database
Copy OK
Track 7
Filename E:EACBTW SharingAradhna2011 - Namaste Sate7 - Chosen.wav
Peak level 99.1 %
Track quality 100.0 %
Test CRC E5B588A4
Copy CRC E5B588A4
Track not present in AccurateRip database
Copy OK
Track 8
Filename E:EACBTW SharingAradhna2011 - Namaste Sate8 - Yeshu Muktinath.wav
Peak level 99.1 %
Track quality 99.9 %
Test CRC D0EE4CDA
Copy CRC D0EE4CDA
Track not present in AccurateRip database
Copy OK
Track 9
Filename E:EACBTW SharingAradhna2011 - Namaste Sate9 - Yapudhe.wav
Peak level 99.1 %
Track quality 100.0 %
Test CRC FDD3E9A1
Copy CRC FDD3E9A1
Track not present in AccurateRip database
Copy OK
Track 10
Filename E:EACBTW SharingAradhna2011 - Namaste Sate10 - Herana.wav
Peak level 98.4 %
Track quality 100.0 %
Test CRC E01399B4
Copy CRC E01399B4
Track not present in AccurateRip database
Copy OK
Track 11
Filename E:EACBTW SharingAradhna2011 - Namaste Sate11 - Apane Logo.wav
Peak level 99.1 %
Track quality 100.0 %
Test CRC 800FEE4E
Copy CRC 800FEE4E
Track not present in AccurateRip database
Copy OK
None of the tracks are present in the AccurateRip database
No errors occurred
End of status report
FileSonic
Turbobit



Alternative download links

DOWNLOAD

Related MP3 FLAC to Aradhna - Namaste Sate (2011)
Feedback
All rights reserved.
WEBBG.com © 2000-2018