Glenn Miller - Instrumental Collection (2002)
MP3 FLAC WMA APE HD

Glenn Miller - Instrumental Collection (2002)

  • Genre: Music, Jazz, FLAC / APE
  • Formats: MP3 FLAC WMA HD APE
  • Album Size: 1581 mb.
  • Archive: ZIP RAR
Artist: Glenn Miller
Title Of Album: Instrumental Collection
Year Of Release: 2002
Label: Instrumental Records L.A.
Genre: Jazz, Swing, Big Band
Quality: FLAC (Img,cue,log,scans)|MP3
Bitrate: lossless | 320kbps
Total Time: 01:16:29 min
Total Size: 521 mb/260 mb (+rec)
TRACKLIST
01. In The Mood [0:03:30.44]
02. Sunrise Serenade [0:03:31.27]
03. A String Of Pearls [0:03:12.22]
04. Rhapsody In Blue [0:03:13.34]
05. The American Patrol [0:03:07.22]
06. Little Brown Jug [0:03:04.55]
07. Alice Blue Gown [0:02:33.02]
08. Tuxedo Junction [0:03:23.02]
09. Adios [0:02:50.34]
10. My Sentiment [0:03:05.02]
11. St. Louis Blues March [0:04:25.67]
12. Song Of The Voga Boatmen [0:03:10.37]
13. Everybody Loves My Baby [0:03:07.17]
14. Pennsylvania 6-5000 [0:03:01.60]
15. Sun Valley Jump [0:02:32.64]
16. Anvil Chorus [0:03:30.27]
17. Carribean Clipper [0:02:25.72]
18. Swing Low, Sweet Chariot [0:04:40.55]
19. Now Is The Hour [0:02:04.18]
20. Serenade In Blue [0:04:51.35]
21. Stardust [0:03:43.30]
22. Chattanoga Choo Choo [0:03:43.19]
23. Moonlight Serenade [0:03:40.56]
Alton Glenn Miller (March 1, 1904 – missing December 15, 1944) was an American jazz musician (trombone), arranger, composer, and bandleader in the swing era. He was one of the best-selling recording artists from 1939 to 1943, leading one of the best known "Big Bands". Miller's signature recordings include In the Mood, American Patrol, Chattanooga Choo Choo, A String of Pearls, Tuxedo Junction, Moonlight Serenade, Little Brown Jug and Pennsylvania 6-5000. While he was traveling to entertain U.S. troops in France during World War II, Miller's plane disappeared in bad weather over the English Channel. His body has never been found.
О́лтон Гленн Ми́ллер (англ. Alton Glenn Miller, 1 марта 1904, Кларинда, Айова — 15 декабря 1944, Ла-Манш) — американский тромбонист, аранжировщик, руководитель одного из лучших свинговых оркестров (конец 1930-х — начало 1940-х годов) — оркестра Гленна Миллера.
Олтон Гленн Миллер родился 1 марта 1904 года в городке Кларинда, в юго-западной части кукурузного штата Айова. Его предки были американскими пионерами, отправившимися в середине XIX века на запад континента в поисках лучшей доли.
Первый тромбон 14-летнему Гленну подарил мясник, в лавке которого он временами подрабатывал. Он заиграл на нём в школьном танцевальном оркестре. 17-летний Гленн был так захвачен новомодными танцевальными ритмами, что в день вручения школьных аттестатов сбежал из дома, чтобы поиграть на танцах в оркестре городка Лэрами в штате Вайоминг. Уже в пору учебы в Колорадском университете в 1923 году Миллер стал играть в университетском танцевальном оркестре. Через полтора года он бросил учёбу и отправился в Лос-Анджелес в составе оркестра Макса Фишера.
1935 год стал знаменательным для Гленна Миллера, именно в этом году выходит его первая пластинка с композициями: "Лунный свет над Гангом" и "Блюзовая серенада".
Впоследствии, "Серенада лунного света", сыгранная оркестром Гленна Миллера, станет поистине классикой популярной музыки 20-го века.
Оркестр Гленна Миллера, известный и знаменитый во всем мире, появился на свет в 1938 году и сразу стал желанным для гастролей и записи пластинок. В течение нескольких лет оркестр буквально разрывался между записью грампластинок, репетициями, выступлениями на радио в прямом эфире и вечерними концертами на танцах и вечеринках. Количество музыки, записанное оркестром за пять лет, хватило бы на 50 нынешних компакт-дисков.
Новый оркестр, созданный Гленном Миллером в 1943 году, принимал участие в военных действиях ездил с концертами по войсковым частям и подразделениям.
Гибель Гленна Миллера, была нелепой и трагичной: перелетая через Ла-Манш на маленьком двухместном самолете, чтобы успеть дать концерт в освобожденном Париже, они исчезли из зоны видимости и слышимости и не были найдены в дальнейшем. Его смерть, произошедшая так неожиданно и странно, до сих пор вызывает споры и неверие.
Exact Audio Copy V0.99 prebeta 5 from 4. May 2009
Отчёт EAC об извлечении, выполненном 18. января 2011, 4:12
Glenn Miller / Instrumental Collection
Дисковод: Optiarc DVD RW AD-7201A Adapter: 0 ID: 0
Режим чтения : Достоверность
Использование точного потока : Да
Отключение кэша аудио : Да
Использование указателей C2 : Нет
Коррекция смещения при чтении : 48
Способность читать области Lead-in и Lead-out : Нет
Заполнение пропущенных сэмплов тишиной : Да
Удаление блоков с тишиной в начале и конце : Нет
При вычислениях CRC использовались нулевые сэмплы : Да
Интерфейс : Установленный внешний ASPI-интерфейс
Выходной формат : Внутренние WAV-операции
Формат сэмплов : 44.100 Гц; 16 бит; стерео
TOC извлечённого CD
Трек | Старт | Длительность | Начальный сектор | Конечный сектор
---------------------------------------------------------------------
1 | 0:00.00 | 3:30.44 | 0 | 15793
2 | 3:30.44 | 3:31.27 | 15794 | 31645
3 | 7:01.71 | 3:12.22 | 31646 | 46067
4 | 10:14.18 | 3:13.34 | 46068 | 60576
5 | 13:27.52 | 3:07.22 | 60577 | 74623
6 | 16:34.74 | 3:04.55 | 74624 | 88478
7 | 19:39.54 | 2:33.02 | 88479 | 99955
8 | 22:12.56 | 3:23.02 | 99956 | 115182
9 | 25:35.58 | 2:50.34 | 115183 | 127966
10 | 28:26.17 | 3:05.02 | 127967 | 141843
11 | 31:31.19 | 4:25.67 | 141844 | 161785
12 | 35:57.11 | 3:10.37 | 161786 | 176072
13 | 39:07.48 | 3:07.17 | 176073 | 190114
14 | 42:14.65 | 3:01.60 | 190115 | 203749
15 | 45:16.50 | 2:32.64 | 203750 | 215213
16 | 47:49.39 | 3:30.27 | 215214 | 230990
17 | 51:19.66 | 2:25.72 | 230991 | 241937
18 | 53:45.63 | 4:40.55 | 241938 | 262992
19 | 58:26.43 | 2:04.18 | 262993 | 272310
20 | 60:30.61 | 4:51.35 | 272311 | 294170
21 | 65:22.21 | 3:43.30 | 294171 | 310925
22 | 69:05.51 | 3:43.19 | 310926 | 327669
23 | 72:48.70 | 3:40.56 | 327670 | 344225
Характеристики диапазона извлечения и сообщения об ошибках
Выбранный диапазон
Имя файла C:Documents and SettingsДокументыМоя музыкаGlenn Miller - Instrumental CollectionGlenn Miller - Instrumental Collection.wav
Пиковый уровень 95.4 %
Качество диапазона 100.0 %
CRC теста 14C82BC1
CRC копии 14C82BC1
Копирование... OK
Ошибок не произошло

AccurateRip: сводка

Трек 1 нет в базе данных
Трек 2 нет в базе данных
Трек 3 нет в базе данных
Трек 4 нет в базе данных
Трек 5 нет в базе данных
Трек 6 нет в базе данных
Трек 7 нет в базе данных
Трек 8 нет в базе данных
Трек 9 нет в базе данных
Трек 10 нет в базе данных
Трек 11 нет в базе данных
Трек 12 нет в базе данных
Трек 13 нет в базе данных
Трек 14 нет в базе данных
Трек 15 нет в базе данных
Трек 16 нет в базе данных
Трек 17 нет в базе данных
Трек 18 нет в базе данных
Трек 19 нет в базе данных
Трек 20 нет в базе данных
Трек 21 нет в базе данных
Трек 22 нет в базе данных
Трек 23 нет в базе данных

Ни одного трека нет в базе AccurateRip
Конец отчёта
DOWNLOAD Lossless
Filesonic.com:
Bitshare.com:
DOWNLOAD MP3:
Filesonic.com:
Bitsahre.com:




Alternative download links

part1 part2 part3 part1 part2

Related MP3 FLAC to Glenn Miller - Instrumental Collection (2002)
Feedback
All rights reserved.
WEBBG.com © 2000-2018