Rakel Traxx - Bitches Palace (2011)
MP3 FLAC WMA APE HD

Rakel Traxx - Bitches Palace (2011)

Artist: Rakel Traxx
Title Of Album: Bitches Palace
Year Of Release: 2011
Label: Shotgun Generation Records
Genre: Sleaze Glam Rock
Quality: APE (image+.cue) + log
Bitrate: Lossless
Total Time: 55:05
Total Size: 409 Mb
French rock band.
Tracklist:
01. Yeah!!!
02. Give Me Your Love
03. Together
04. Fuck You!!!
05. Let Me Take Your Gun
06. Girlz
07. Quicksand
08. Prostitute’s Night
09. Try Again
10. S.E.X.
11. Blue Eyed Creature
12. Everybody Dreams
13. Bang Bang
Exact Audio Copy V0.99 prebeta 5 from 4. May 2009
EAC extraction logfile from 27. August 2011, 22:22
Rakel Traxx / Bitches Palace
Used drive : TSSTcorpCDDVDW SH-S223C Adapter: 1 ID: 1
Read mode : Secure
Utilize accurate stream : Yes
Defeat audio cache : Yes
Make use of C2 pointers : No
Read offset correction : 697
Overread into Lead-In and Lead-Out : No
Fill up missing offset samples with silence : Yes
Delete leading and trailing silent blocks : No
Null samples used in CRC calculations : Yes
Used interface : Installed external ASPI interface
Used output format : Internal WAV Routines
Sample format : 44.100 Hz; 16 Bit; Stereo
TOC of the extracted CD
Track | Start | Length | Start sector | End sector
---------------------------------------------------------
1 | 0:00.00 | 4:02.31 | 0 | 18180
2 | 4:02.31 | 3:29.64 | 18181 | 33919
3 | 7:32.20 | 3:31.42 | 33920 | 49786
4 | 11:03.62 | 5:10.33 | 49787 | 73069
5 | 16:14.20 | 5:00.61 | 73070 | 95630
6 | 21:15.06 | 3:30.51 | 95631 | 111431
7 | 24:45.57 | 3:45.24 | 111432 | 128330
8 | 28:31.06 | 3:23.16 | 128331 | 143571
9 | 31:54.22 | 6:20.15 | 143572 | 172086
10 | 38:14.37 | 3:16.65 | 172087 | 186851
11 | 41:31.27 | 3:52.58 | 186852 | 204309
12 | 45:24.10 | 5:11.59 | 204310 | 227693
13 | 50:35.69 | 4:29.07 | 227694 | 247875
Range status and errors
Selected range
Filename E:Rakel Traxx - Bitches Palace Bitches Palace.wav
Peak level 100.0 %
Range quality 100.0 %
Copy CRC 1306946B
Copy OK
No errors occurred
End of status report
FileSonic
Wupload



Alternative download links

DOWNLOAD

Related MP3 FLAC to Rakel Traxx - Bitches Palace (2011)
Feedback
All rights reserved.
WEBBG.com © 2000-2018