Iona - Another Realm (2011)
MP3 FLAC WMA APE HD

Iona - Another Realm (2011)

Artist: Iona
Title Of Album: Another Realm
Year Of Release: 2011
Label: Open Sky Records
Genre: Prog-Folk
Quality: FLAC (image+.cue) + log
Bitrate: Lossless
Total Time: 44:14 + 51:17
Total Size: 629 Mb
Almost 5 years after the release of IONA's last studio album 'The Circling Hour', the band's latest opus 'Another Realm' is now available. Over a year in the making, this is the band's first double CD studio album, with over 95 minutes of brand new, original music!
Tracklist:
Disc 1:
1. As It Was (2:41)
2. The Ancient Wells (7:22)
3. Another Realm (4:26)
4. Clouds (6:45)
5. An Atmosphere of Miracles (15:35)
6. Let Your Glory Fall (7:25)
Disc 2:
1. Ruach (6:20)
2. Speak to Me (3:30)
3. And the Angels Dance (6:02)
4. Foreigh Soil (4:50)
5. Let the Waters Flow (5:25)
6. Saviour (5:04)
7. The Fearless Ones (5:41)
8. White Horse (11:09)
9. As It Shall Be (3:16)

Exact Audio Copy V0.99 prebeta 1 from 25. May 2007
Отчёт EAC об извлечении, выполненном 28. июня 2011, 23:52
Iona / Another Realm (CD 1)
Дисковод: PIONEER DVD-RW DVR-212D Adapter: 1 ID: 1
Режим чтения : Достоверность
Использование точного потока : Да
Отключение кэша аудио : Да
Использование указателей C2 : Нет
Коррекция смещения при чтении : 48
Способность читать области Lead-in и Lead-out : Нет
Заполнение пропущенных сэмплов тишиной : Да
Удаление блоков с тишиной в начале и конце : Нет
Интерфейс : Установленный внешний ASPI-интерфейс
Выходной формат : Пользовательский кодировщик
Выбранный битрейт : 768 kBit/s
Качество : Высокий
Добавление ID3-тэга : Нет
Утилита сжатия : C:Program FilesExact Audio CopyFLACFLAC.EXE
Дополнительные параметры : -6 -V -T "ARTIST=%a" -T "TITLE=%t" -T "ALBUM=%g" -T "DATE=%y" -T "TRACKNUMBER=%n" -T "GENRE=%m" -T "COMMENT=%e" %s -o %d
TOC извлечённого CD
Трек | Старт | Длительность | Начальный сектор | Конечный сектор
---------------------------------------------------------------------
1 | 0:00.00 | 2:41.09 | 0 | 12083
2 | 2:41.09 | 7:23.60 | 12084 | 45368
3 | 10:04.69 | 4:26.17 | 45369 | 65335
4 | 14:31.11 | 6:45.11 | 65336 | 95721
5 | 21:16.22 | 15:35.62 | 95722 | 165908
6 | 36:52.09 | 7:25.66 | 165909 | 199349
Характеристики диапазона извлечения и сообщения об ошибках
Выбранный диапазон
Имя файла E:Iona CD1Iona - Another Realm.wav
Пиковый уровень 99.6 %
Качество диапазона 100.0 %
CRC теста 84280F04
CRC копии 84280F04
Копирование... OK
AccurateRip: сводка
Трек 1 нет в базе данных
Трек 2 нет в базе данных
Трек 3 нет в базе данных
Трек 4 нет в базе данных
Трек 5 нет в базе данных
Трек 6 нет в базе данных
Ошибок не произошло
[/spoiler=EAC LOG]
Exact Audio Copy V0.99 prebeta 1 from 25. May 2007
Отчёт EAC об извлечении, выполненном 5. июля 2011, 21:09
Iona / Another Realm (CD 2)
Дисковод: PIONEER DVD-RW DVR-212D Adapter: 1 ID: 1
Режим чтения : Достоверность
Использование точного потока : Да
Отключение кэша аудио : Да
Использование указателей C2 : Нет
Коррекция смещения при чтении : 48
Способность читать области Lead-in и Lead-out : Нет
Заполнение пропущенных сэмплов тишиной : Да
Удаление блоков с тишиной в начале и конце : Нет
Интерфейс : Установленный внешний ASPI-интерфейс
Выходной формат : Пользовательский кодировщик
Выбранный битрейт : 768 kBit/s
Качество : Высокий
Добавление ID3-тэга : Нет
Утилита сжатия : C:Program FilesExact Audio CopyFLACFLAC.EXE
Дополнительные параметры : -6 -V -T "ARTIST=%a" -T "TITLE=%t" -T "ALBUM=%g" -T "DATE=%y" -T "TRACKNUMBER=%n" -T "GENRE=%m" -T "COMMENT=%e" %s -o %d
TOC извлечённого CD
Трек | Старт | Длительность | Начальный сектор | Конечный сектор
---------------------------------------------------------------------
1 | 0:00.00 | 6:21.08 | 0 | 28582
2 | 6:21.08 | 3:30.03 | 28583 | 44335
3 | 9:51.11 | 6:04.01 | 44336 | 71636
4 | 15:55.12 | 4:51.64 | 71637 | 93525
5 | 20:47.01 | 5:27.08 | 93526 | 118058
6 | 26:14.09 | 5:07.02 | 118059 | 141085
7 | 31:21.11 | 5:41.70 | 141086 | 166730
8 | 37:03.06 | 11:09.35 | 166731 | 216940
9 | 48:12.41 | 3:16.34 | 216941 | 231674
Характеристики диапазона извлечения и сообщения об ошибках
Выбранный диапазон
Имя файла E:Iona CD2Iona - Another Realm (CD2).wav
Пиковый уровень 99.6 %
Качество диапазона 100.0 %
CRC теста 975DE059
CRC копии 975DE059
Копирование... OK
AccurateRip: сводка
Трек 1 нет в базе данных
Трек 2 нет в базе данных
Трек 3 нет в базе данных
Трек 4 нет в базе данных
Трек 5 нет в базе данных
Трек 6 нет в базе данных
Трек 7 нет в базе данных
Трек 8 нет в базе данных
Трек 9 нет в базе данных
Ошибок не произошло
Конец отчёта
FileSonic
Wupload



Alternative download links

DOWNLOAD

Related MP3 FLAC to Iona - Another Realm (2011)
Feedback
All rights reserved.
WEBBG.com © 2000-2018