Nadia - Kiss Of Destiny
MP3 FLAC WMA APE HD

Nadia - Kiss Of Destiny

Free download links


Nadia - Kiss Of Destiny .zip
MP3 version ZIP archive

1473 downloads at 30 mb/s

Nadia - Kiss Of Destiny .zip
FLAC/APE version ZIP archive

943 downloads at 22 mb/s
Artist: Nadia
Title Of Album: Nadia - Kiss Of Destiny
Year Of Release: Aug 4, 1996
Label: JPT
Genre: Pop, Eurodance
Quality: FLAC
Bitrate: lossless image+CUE +LOG +COVERS
Total Size: 364,39 Mb
Tracklist:
1 Beatman 05:44
2 Shine On 04:44
3 Take Me Up 03:55
4 Live On Love 04:43
5 Free Free 03:53
6 The Fall 04:03
7 Imagination 04:25
8 Catch Me Baby 04:12
9 Get Over It 03:40
10 Be The One 05:07
11 Kiss Me Goodbye 03:54
12 Shine On (Premier Remix)
Exact Audio Copy V0.99 prebeta 5 from 4. May 2009
Отчёт EAC об извлечении, выполненном 29. января 2010, 9:39
Nadia / Kiss Of Destiny
Дисковод: ASUS DRW-2014S1T Adapter: 0 ID: 0
Режим чтения : Достоверность
Использование точного потока : Да
Отключение кэша аудио : Да
Использование указателей C2 : Нет
Коррекция смещения при чтении : 6
Способность читать области Lead-in и Lead-out : Нет
Заполнение пропущенных сэмплов тишиной : Да
Удаление блоков с тишиной в начале и конце : Нет
При вычислениях CRC использовались нулевые сэмплы : Да
Интерфейс : Установленный внешний ASPI-интерфейс
Выходной формат : Пользовательский кодировщик
Выбранный битрейт : 768 kBit/s
Качество : Высокий
Добавление ID3-тэга : Нет
Утилита сжатия : C:Program FilesExact Audio CopyFLACFLAC.EXE
Дополнительные параметры : -8 -V -T "ARTIST=%a" -T "TITLE=%t" -T "ALBUM=%g" -T "DATE=%y" -T "TRACKNUMBER=%n" -T "GENRE=%m" -T "COMMENT=%e" %s -o %d
TOC извлечённого CD
Трек | Старт | Длительность | Начальный сектор | Конечный сектор
---------------------------------------------------------------------
1 | 0:00.00 | 5:44.40 | 0 | 25839
2 | 5:44.40 | 4:44.22 | 25840 | 47161
3 | 10:28.62 | 3:55.13 | 47162 | 64799
4 | 14:24.00 | 4:43.30 | 64800 | 86054
5 | 19:07.30 | 3:53.10 | 86055 | 103539
6 | 23:00.40 | 4:03.32 | 103540 | 121796
7 | 27:03.72 | 4:25.63 | 121797 | 141734
8 | 31:29.60 | 4:12.07 | 141735 | 160641
9 | 35:41.67 | 3:40.38 | 160642 | 177179
10 | 39:22.30 | 5:07.12 | 177180 | 200216
11 | 44:29.42 | 3:54.40 | 200217 | 217806
12 | 48:24.07 | 6:29.65 | 217807 | 247046
Характеристики диапазона извлечения и сообщения об ошибках
Выбранный диапазон
Имя файла C:Nadia - Kiss Of Destiny - 1996.wav
Пиковый уровень 100.0 %
Качество диапазона 100.0 %
CRC копии 2D0C01A9
Копирование... OK
Ошибок не произошло
AccurateRip: сводка
Трек 1 нет в базе данных
Трек 2 нет в базе данных
Трек 3 нет в базе данных
Трек 4 нет в базе данных
Трек 5 нет в базе данных
Трек 6 нет в базе данных
Трек 7 нет в базе данных
Трек 8 нет в базе данных
Трек 9 нет в базе данных
Трек 10 нет в базе данных
Трек 11 нет в базе данных
Трек 12 нет в базе данных
Ни одного трека нет в базе AccurateRip
Конец отчёта
Download Nadia - Kiss Of Destiny :
turbobit.net:
hotfile.com
" Sale Accounts by Rapidshare.com for 5 WMZ. Write in PM "
Rapidshare:
Pass: israbox.download
Thanks to the original Publicist "abi7010"



Alternative download links



Related MP3 FLAC to Nadia - Kiss Of Destiny
Feedback
All rights reserved.
WEBBG.com © 2000-2018