Honeyboy Hickling - Straight From The Harp (2000)
MP3 FLAC WMA APE HD

Honeyboy Hickling - Straight From The Harp (2000)

  • Genre: Music, Blues, FLAC / APE
  • Formats: MP3 FLAC WMA HD APE
  • Album Size: 1614 mb.
  • Archive: ZIP RAR
Artist: Honeyboy Hickling
Title Of Album: Straight From The Harp
Year Of Release: 2000
Label: Music Maker
Genre: Blues
Quality: APE (image+.cue) + log
Bitrate: Lossless
Total Time: 45:02
Total Size: 293 Mb
The rhythm and blues harp vocabulary available to the Honeyboy has been acquired in the only way possible, years on years of playing the harp with R n' B acts in smoky venues and recording studios.
Tracklist:
01. Come On Over Here [0:02:53.05]
02. Sleeping On The Ground [0:03:33.41]
03. Sing Baby Sing [0:04:06.98]
04. Big Train [0:03:59.28]
05. Love The Life I'm Living [0:02:46.41]
06. Easy [0:04:31.94]
07. Hey Mattie [0:02:56.02]
08. Don't Believe In Nothing [0:04:17.65]
09. Can't Hold Out Much Longer [0:03:56.02]
10. La Cucaracha [0:01:55.02]
11. Must Have Been Dreaming [0:02:38.40]
12. Goin Up The Country [0:02:46.12]
13. Miss You [0:04:41.16]
Exact Audio Copy V0.99 prebeta 4 from 23. January 2008
Отчёт EAC об извлечении, выполненном 12. июля 2011, 19:51
Honeyboy Hickling / Straight From The Harp
Дисковод: Optiarc DVD RW AD-7173A Adapter: 0 ID: 1
Режим чтения : Достоверность
Использование точного потока : Да
Отключение кэша аудио : Да
Использование указателей C2 : Нет
Коррекция смещения при чтении : 48
Способность читать области Lead-in и Lead-out : Нет
Заполнение пропущенных сэмплов тишиной : Да
Удаление блоков с тишиной в начале и конце : Нет
При вычислениях CRC использовались нулевые сэмплы : Да
Интерфейс : Встроенный Win32-интерфейс для Win NT/2000
Выходной формат : Внутренние WAV-операции
Формат сэмплов : 44.100 Гц; 16 бит; стерео
TOC извлечённого CD
Трек | Старт | Длительность | Начальный сектор | Конечный сектор
---------------------------------------------------------------------
1 | 0:00.00 | 2:53.04 | 0 | 12978
2 | 2:53.04 | 3:33.31 | 12979 | 28984
3 | 6:26.35 | 4:06.74 | 28985 | 47508
4 | 10:33.34 | 3:59.21 | 47509 | 65454
5 | 14:32.55 | 2:46.31 | 65455 | 77935
6 | 17:19.11 | 4:31.71 | 77936 | 98331
7 | 21:51.07 | 2:56.02 | 98332 | 111533
8 | 24:47.09 | 4:17.49 | 111534 | 130857
9 | 29:04.58 | 3:56.02 | 130858 | 148559
10 | 33:00.60 | 1:55.02 | 148560 | 157186
11 | 34:55.62 | 2:38.30 | 157187 | 169066
12 | 37:34.17 | 2:46.09 | 169067 | 181525
13 | 40:20.26 | 4:41.12 | 181526 | 202612
Характеристики диапазона извлечения и сообщения об ошибках
Выбранный диапазон
Имя файла D:КОЛЛЕКЦИЯ 12Новая папка Honeyboy Hickling - Straight From The Harp.wav
Пиковый уровень 96.6 %
Качество диапазона 100.0 %
CRC теста 100D6DC1
CRC копии 100D6DC1
Копирование... OK
Ошибок не произошло
AccurateRip: сводка
Трек 1 нет в базе данных
Трек 2 нет в базе данных
Трек 3 нет в базе данных
Трек 4 нет в базе данных
Трек 5 нет в базе данных
Трек 6 нет в базе данных
Трек 7 нет в базе данных
Трек 8 нет в базе данных
Трек 9 нет в базе данных
Трек 10 нет в базе данных
Трек 11 нет в базе данных
Трек 12 нет в базе данных
Трек 13 нет в базе данных
Ни одного трека нет в базе AccurateRip
Конец отчёта
FileSonic
Wupload



Alternative download links

DOWNLOAD

Related MP3 FLAC to Honeyboy Hickling - Straight From The Harp (2000)
Feedback
All rights reserved.
WEBBG.com © 2000-2018