The Karlton Coffin Band - Three Minutes Of Fury (2010)
MP3 FLAC WMA APE HD

The Karlton Coffin Band - Three Minutes Of Fury (2010)

  • Genre: Music, Rock, FLAC / APE
  • Formats: MP3 FLAC WMA HD APE
  • Album Size: 1815 mb.
  • Archive: ZIP RAR
Artist: The Karlton Coffin Band
Title Of Album: Three Minutes Of Fury
Year Of Release: 2010
Label: Blackball Records
Genre: Hard Rock
Quality: FLAC (image+.cue) + log
Bitrate: Lossless
Total Time: 38:11
Total Size: 297 Mb
Tracklist:
01. Company Man (4:39)
02. Get Your Drink On (3:33)
03. Man On The Inside (4:10)
04. Blue Collar (4:30)
05. Always Something (3:42)
06. King (3:34)
07. Three Minutes Of Fury (3:43)
08. Raging Inferno (3:59)
09. It's On (3:48)
10. 3 Circles (2:29)
Exact Audio Copy V0.99 prebeta 4 from 23. January 2008
Отчёт EAC об извлечении, выполненном 24. февраля 2011, 22:13
Karlton Coffin Band / Three Minutes Of Fury
Дисковод: PLEXTOR DVDR PX-880SA Adapter: 1 ID: 1
Режим чтения : Достоверность
Использование точного потока : Да
Отключение кэша аудио : Да
Использование указателей C2 : Нет
Коррекция смещения при чтении : 6
Способность читать области Lead-in и Lead-out : Нет
Заполнение пропущенных сэмплов тишиной : Да
Удаление блоков с тишиной в начале и конце : Нет
При вычислениях CRC использовались нулевые сэмплы : Да
Интерфейс : Установленный внешний ASPI-интерфейс
Выходной формат : Пользовательский кодировщик
Выбранный битрейт : 1024 kBit/s
Качество : Высокий
Добавление ID3-тэга : Нет
Утилита сжатия : C:Program FilesExact Audio CopyFLACFLAC.EXE
Дополнительные параметры : -5 -V -T "ARTIST=%a" -T "TITLE=%t" -T "ALBUM=%g" -T "DATE=%y" -T "TRACKNUMBER=%n" -T "GENRE=%m" -T "COMMENT=%e" %s -o %d
TOC извлечённого CD
Трек | Старт | Длительность | Начальный сектор | Конечный сектор
---------------------------------------------------------------------
1 | 0:00.00 | 4:39.32 | 0 | 20956
2 | 4:39.32 | 3:33.37 | 20957 | 36968
3 | 8:12.69 | 4:10.33 | 36969 | 55751
4 | 12:23.27 | 4:30.16 | 55752 | 76017
5 | 16:53.43 | 3:42.23 | 76018 | 92690
6 | 20:35.66 | 3:34.28 | 92691 | 108768
7 | 24:10.19 | 3:43.11 | 108769 | 125504
8 | 27:53.30 | 3:59.64 | 125505 | 143493
9 | 31:53.19 | 3:48.17 | 143494 | 160610
10 | 35:41.36 | 2:29.73 | 160611 | 171858
Характеристики диапазона извлечения и сообщения об ошибках
Выбранный диапазон
Имя файла I:BitCometKarlton Coffin Band-Three Minutes Of Fury(flac)Karlton Coffin Band - Three Minutes Of Fury.wav
Пиковый уровень 100.0 %
Качество диапазона 100.0 %
CRC теста FCABDF79
CRC копии FCABDF79
Копирование... OK
Ошибок не произошло
AccurateRip: сводка
Трек 1 нет в базе данных
Трек 2 нет в базе данных
Трек 3 нет в базе данных
Трек 4 нет в базе данных
Трек 5 нет в базе данных
Трек 6 нет в базе данных
Трек 7 нет в базе данных
Трек 8 нет в базе данных
Трек 9 нет в базе данных
Трек 10 нет в базе данных
Ни одного трека нет в базе AccurateRip
Конец отчёта
FileSonic.com
Turbobit.net



Alternative download links

DOWNLOAD

Related MP3 FLAC to The Karlton Coffin Band - Three Minutes Of Fury (2010)
Feedback
All rights reserved.
WEBBG.com © 2000-2018