Gillan Glover - Accidentally On Purpose Japan Reissue 2007 Remastered Edition (2007)
MP3 FLAC WMA APE HD

Gillan Glover - Accidentally On Purpose Japan Reissue 2007 Remastered Edition (2007)

Artist: Gillan & Glover
Title Of Album: Accidentally On Purpose [Japan Reissue/ 2007 Remastered Edition]
Year Of Release: 2007
Label: Air Mail Archive
Genre: Classic Rock
Quality: FLAC (image+.cue) + log
Bitrate: Lossless
Total Time: 00:51:47
Total Size: 465 Mb
Accidentally on Purpose is an album by Deep Purple members Ian Gillan and Roger Glover, released in February 1988 on Virgin Records. The track "Lonely Avenue" appeared on the soundtrack to Rain Man featuring Dustin Hoffman and Tom Cruise.
Tracklist:
01. Clouds And Rain
02. Evil Eye
03. She Took My Breath Away
04. Dislocated
05. Via Miami
06. I Can't Dance To That
07. Can't Believe You Wanna Leave
08. Lonely Avenue
09. Telphone Box
10. I Thought No
Bonus Tracks
11. Cayman Island
12. Purple People Eater
13. Chet
Exact Audio Copy V0.99 prebeta 5 from 4. May 2009
Отчёт EAC об извлечении, выполненном 13. апреля 2011, 23:23
Gillan & Glover / Accidentally On Purpose Remastered
Дисковод: Optiarc DVD RW AD-7201S Adapter: 2 ID: 1
Режим чтения : Достоверность
Использование точного потока : Да
Отключение кэша аудио : Да
Использование указателей C2 : Нет
Коррекция смещения при чтении : 48
Способность читать области Lead-in и Lead-out : Нет
Заполнение пропущенных сэмплов тишиной : Да
Удаление блоков с тишиной в начале и конце : Нет
При вычислениях CRC использовались нулевые сэмплы : Да
Интерфейс : Встроенный Win32-интерфейс для Win NT/2000
Выходной формат : Внутренние WAV-операции
Формат сэмплов : 44.100 Гц; 16 бит; стерео
TOC извлечённого CD
Трек | Старт | Длительность | Начальный сектор | Конечный сектор
---------------------------------------------------------------------
1 | 0:00.00 | 4:02.02 | 0 | 18151
2 | 4:02.02 | 4:12.31 | 18152 | 37082
3 | 8:14.33 | 4:34.70 | 37083 | 57702
4 | 12:49.28 | 3:23.63 | 57703 | 72990
5 | 16:13.16 | 4:59.73 | 72991 | 95488
6 | 21:13.14 | 4:24.71 | 95489 | 115359
7 | 25:38.10 | 3:10.20 | 115360 | 129629
8 | 28:48.30 | 3:08.04 | 129630 | 143733
9 | 31:56.34 | 5:17.33 | 143734 | 167541
10 | 37:13.67 | 3:41.32 | 167542 | 184148
11 | 40:55.24 | 2:35.24 | 184149 | 195797
12 | 43:30.48 | 3:56.35 | 195798 | 213532
13 | 47:27.08 | 4:19.46 | 213533 | 233003
Характеристики диапазона извлечения и сообщения об ошибках
Выбранный диапазон
Имя файла F:Раздачи RodexxGillan & Glover - Accidentally On PurposeGillan & Glover - Accidentally On Purpose Remastered.wav
Пиковый уровень 96.6 %
Качество диапазона 99.8 %
CRC теста 4ACAD466
CRC копии 4ACAD466
Копирование... OK
Ошибок не произошло
AccurateRip: сводка
Трек 1 нет в базе данных
Трек 2 нет в базе данных
Трек 3 нет в базе данных
Трек 4 нет в базе данных
Трек 5 нет в базе данных
Трек 6 нет в базе данных
Трек 7 нет в базе данных
Трек 8 нет в базе данных
Трек 9 нет в базе данных
Трек 10 нет в базе данных
Трек 11 нет в базе данных
Трек 12 нет в базе данных
Трек 13 нет в базе данных
Ни одного трека нет в базе AccurateRip
Конец отчёта
FileSonic
Turbobit



Alternative download links

DOWNLOAD

Related MP3 FLAC to Gillan Glover - Accidentally On Purpose Japan Reissue 2007 Remastered Edition (2007)
Feedback
All rights reserved.
WEBBG.com © 2000-2018