Circus - Circus (1976)
MP3 FLAC WMA APE HD

Circus - Circus (1976)

  • Genre: Music, Rock, FLAC / APE
  • Formats: MP3 FLAC WMA HD APE
  • Album Size: 1730 mb.
  • Archive: ZIP RAR

Free download links


Circus - Circus (1976) .zip
MP3 version ZIP archive

1730 downloads at 30 mb/s

Circus - Circus (1976) .zip
FLAC/APE version ZIP archive

943 downloads at 22 mb/s
Artist: Circus
Title Of Album: Circus
Year Of Release: 1976
Label: Tachika
Genre: progressive rock
Quality: FLAC (*.flac)
Bitrate: lossless
Total Time: 40:44
Total Size: 191 MB
Tracklist:
01. Stormsplinter [02:52]
02. Nowadays [10:49]
03. Sundays [06:59]
04. Dawntalk [05:14]
05. Room for Sale [15:08]
Exact Audio Copy V0.99 prebeta 5 from 4. May 2009
Отчёт EAC об извлечении, выполненном 3. марта 2011, 8:52
Circus / Circus
Дисковод: MAD DOG MD-16X3DVD9-8XB Adapter: 3 ID: 1
Режим чтения : Достоверность
Использование точного потока : Да
Отключение кэша аудио : Да
Использование указателей C2 : Нет
Коррекция смещения при чтении : 48
Способность читать области Lead-in и Lead-out : Нет
Заполнение пропущенных сэмплов тишиной : Да
Удаление блоков с тишиной в начале и конце : Нет
При вычислениях CRC использовались нулевые сэмплы : Да
Интерфейс : Установленный внешний ASPI-интерфейс
Выходной формат : Внутренние WAV-операции
Формат сэмплов : 44.100 Гц; 16 бит; стерео
TOC извлечённого CD
Трек | Старт | Длительность | Начальный сектор | Конечный сектор
---------------------------------------------------------------------
1 | 0:00.00 | 2:52.53 | 0 | 12952
2 | 2:52.53 | 10:49.03 | 12953 | 61630
3 | 13:41.56 | 6:59.51 | 61631 | 93106
4 | 20:41.32 | 5:14.34 | 93107 | 116690
5 | 25:55.66 | 15:08.12 | 116691 | 184802
Характеристики диапазона извлечения и сообщения об ошибках
Выбранный диапазон
Имя файла D:obrazCircus - Circus.wav
Пиковый уровень 99.0 %
Качество диапазона 100.0 %
CRC теста 244369F0
CRC копии 244369F0
Копирование... OK
Ошибок не произошло
AccurateRip: сводка
Трек 1 точность не определена (достоверность 2) [B5CA2C4D], AccurateRip вернул [BAD08776]
Трек 2 точность не определена (достоверность 1) [D20011E6], AccurateRip вернул [20782979]
Трек 3 точность не определена (достоверность 2) [13CAAE06], AccurateRip вернул [CBBB1E79]
Трек 4 точность не определена (достоверность 1) [F90AA055], AccurateRip вернул [77B5A66C]
Трек 5 точность не определена (достоверность 1) [E0B31CF2], AccurateRip вернул [B520E765]
Ни один трек не прошёл проверки на точность
В вашей базе может быть иной вариант штамповки диска
Конец отчёта




Alternative download links



Related MP3 FLAC to Circus - Circus (1976)
Feedback
All rights reserved.
WEBBG.com © 2000-2018