Dana Gillespie - I Rest My Case (2010)
MP3 FLAC WMA APE HD

Dana Gillespie - I Rest My Case (2010)

  • Genre: Music, Blues, FLAC / APE
  • Formats: MP3 FLAC WMA HD APE
  • Album Size: 1747 mb.
  • Archive: ZIP RAR
Artist: Dana Gillespie
Title Of Album: I Rest My Case
Year Of Release: 2010
Genre: Blues
Quality: APE (*.ape) | MP3
Bitrate: lossless | 320 kbps
Total Time: 1:04:15
Total Size: 406 MB | 150 MB
Tracklist:
01. Funk Me, It's Hot! (4:43)
02. It's Gonna Be A Long Night (3:32)
03. Twenty Four Seven (6:15)
04. When Cries Become Sighs (5:10)
05. Your Love Is True (4:58)
06. Strange Are The Ways Of Love (5:08)
07. Game Over (3:56)
08. The House Of Blues (4:43)
09. Guilty As Hell (5:25)
10. I Rest My Case (5:28)
11. Wall-To-Wall Love (4:15)
12. Unify (4:42)
13. Could Ve, Should Ve, Would Ve (5:58)
Exact Audio Copy V0.99 prebeta 4 from 23. January 2008
Отчёт EAC об извлечении, выполненном 6. марта 2011, 21:24
Dana Gillespie / I Rest My Case
Дисковод: Optiarc DVD RW AD-7173A Adapter: 0 ID: 1
Режим чтения : Достоверность
Использование точного потока : Да
Отключение кэша аудио : Да
Использование указателей C2 : Нет
Коррекция смещения при чтении : 48
Способность читать области Lead-in и Lead-out : Нет
Заполнение пропущенных сэмплов тишиной : Да
Удаление блоков с тишиной в начале и конце : Нет
При вычислениях CRC использовались нулевые сэмплы : Да
Интерфейс : Встроенный Win32-интерфейс для Win NT/2000
Выходной формат : Внутренние WAV-операции
Формат сэмплов : 44.100 Гц; 16 бит; стерео
TOC извлечённого CD
Трек | Старт | Длительность | Начальный сектор | Конечный сектор
---------------------------------------------------------------------
1 | 0:00.00 | 4:42.54 | 0 | 21203
2 | 4:42.54 | 3:31.65 | 21204 | 37093
3 | 8:14.44 | 6:14.68 | 37094 | 65211
4 | 14:29.37 | 5:10.32 | 65212 | 88493
5 | 19:39.69 | 4:58.15 | 88494 | 110858
6 | 24:38.09 | 5:08.28 | 110859 | 133986
7 | 29:46.37 | 3:56.12 | 133987 | 151698
8 | 33:42.49 | 4:42.68 | 151699 | 172916
9 | 38:25.42 | 5:25.20 | 172917 | 197311
10 | 43:50.62 | 5:28.13 | 197312 | 221924
11 | 49:19.00 | 4:15.10 | 221925 | 241059
12 | 53:34.10 | 4:42.30 | 241060 | 262239
13 | 58:16.40 | 5:58.27 | 262240 | 289116
Характеристики диапазона извлечения и сообщения об ошибках
Выбранный диапазон
Имя файла E:РАЗДАЧИНовая папкаDana Gillespie - I Rest My Case.wav
Пиковый уровень 96.6 %
Качество диапазона 99.9 %
CRC теста BE901CBC
CRC копии BE901CBC
Копирование... OK
Ошибок не произошло
AccurateRip: сводка
Трек 1 нет в базе данных
Трек 2 нет в базе данных
Трек 3 нет в базе данных
Трек 4 нет в базе данных
Трек 5 нет в базе данных
Трек 6 нет в базе данных
Трек 7 нет в базе данных
Трек 8 нет в базе данных
Трек 9 нет в базе данных
Трек 10 нет в базе данных
Трек 11 нет в базе данных
Трек 12 нет в базе данных
Трек 13 нет в базе данных
Ни одного трека нет в базе AccurateRip
Конец отчёта
APE
filesonic.com
|
uploaded.to
|
turbobit.net
|
MP3




Alternative download links



Related MP3 FLAC to Dana Gillespie - I Rest My Case (2010)
Feedback
All rights reserved.
WEBBG.com © 2000-2018