Al Bano Romina Power - I Grandi Successi 3CD Box Set
MP3 FLAC WMA APE HD

Al Bano Romina Power - I Grandi Successi 3CD Box Set

  • Genre: Music, Pop, FLAC / APE
  • Formats: MP3 FLAC WMA HD APE
  • Album Size: 1814 mb.
  • Archive: ZIP RAR
Artist: Al Bano, Romina Power
Title Of Album: Al Bano & Romina Power - I Grandi Successi
Year Of Release: September 15, 1997
Label: BMG Ariola Miller
Genre: Pop
Quality: FLAC
Bitrate: lossless image +cue +log +SCANS
Total Size: 901,90 Mb
This collection of 3 CDs is gold to have in the house especially because Al Bano and Romina will remain a legend in Italian music. A must-have for the Italian music lovers. Plus the sound quality of these 3 CDs is excellent!
Tracklist:
CD1
01.Felicitа (3:16)
02.Ci Sarа (3:29)
03.Magic Oh Magic (3:37)
04.Io Ti Cerco (3:39)
05.Anche Tu (3:28)
06.Caro Gesu (3:53)
07.Il Covo Delle Aquile (4:11)
08.L' Amore E (3:57)
09.Parigi E Bella (3:17)
10.Aria Pura (3:11)
11.Grazie (3:31)
Exact Audio Copy V0.99 prebeta 5 from 4. May 2009
Отчёт EAC об извлечении, выполненном 8. ноября 2009, 0:03
Al Bano & Romina Power / I Grandi Successi CD1
Дисковод: ASUS DRW-2014S1T Adapter: 1 ID: 0
Режим чтения : Достоверность
Использование точного потока : Да
Отключение кэша аудио : Да
Использование указателей C2 : Нет
Коррекция смещения при чтении : 6
Способность читать области Lead-in и Lead-out : Нет
Заполнение пропущенных сэмплов тишиной : Да
Удаление блоков с тишиной в начале и конце : Нет
При вычислениях CRC использовались нулевые сэмплы : Да
Интерфейс : Установленный внешний ASPI-интерфейс
Выходной формат : Внутренние WAV-операции
Формат сэмплов : 44.100 Гц; 16 бит; стерео
TOC извлечённого CD
Трек | Старт | Длительность | Начальный сектор | Конечный сектор
---------------------------------------------------------------------
1 | 0:00.32 | 3:16.20 | 32 | 14751
2 | 3:16.52 | 3:28.73 | 14752 | 30424
3 | 6:45.50 | 3:37.00 | 30425 | 46699
4 | 10:22.50 | 3:38.67 | 46700 | 63116
5 | 14:01.42 | 3:28.08 | 63117 | 78724
6 | 17:29.50 | 3:53.20 | 78725 | 96219
7 | 21:22.70 | 4:11.25 | 96220 | 115069
8 | 25:34.20 | 3:57.37 | 115070 | 132881
9 | 29:31.57 | 3:17.13 | 132882 | 147669
10 | 32:48.70 | 3:11.37 | 147670 | 162031
11 | 36:00.32 | 3:31.00 | 162032 | 177856
Характеристики диапазона извлечения и сообщения об ошибках
Выбранный диапазон
Имя файла Z:TempAl Bano & Romina Power - I Grandi Successi CD1.wav
Пиковый уровень 99.0 %
Качество диапазона 100.0 %
CRC теста 102A93C9
CRC копии 102A93C9
Копирование... OK
Ошибок не произошло
AccurateRip: сводка
Трек 1 нет в базе данных
Трек 2 нет в базе данных
Трек 3 нет в базе данных
Трек 4 нет в базе данных
Трек 5 нет в базе данных
Трек 6 нет в базе данных
Трек 7 нет в базе данных
Трек 8 нет в базе данных
Трек 9 нет в базе данных
Трек 10 нет в базе данных
Трек 11 нет в базе данных
Ни одного трека нет в базе AccurateRip
Конец отчёта
CD2
01.Sharazan (4:45)
02.Tu Soltanto Tu (Mi Hai Fatto Innamorare) (3:42)
03.Canzone Blu (3:24)
04.Angeli (3:29)
05.U.S. America (4:09)
06.Dialogo (3:08)
07.Un' Isola Nella Cittа (3:24)
08.Quando Un Amore Se Ne Va (3:21)
09.1961 (3:22)
10.Prima Notte D'amore (2:59)
11.Leo, Leo (3:35)
12.Arrividerci A Bahia (3:04)
Exact Audio Copy V0.99 prebeta 5 from 4. May 2009
Отчёт EAC об извлечении, выполненном 8. ноября 2009, 0:42
Al Bano & Romina Power / I Grandi Successi CD2
Дисковод: ASUS DRW-2014S1T Adapter: 1 ID: 0
Режим чтения : Достоверность
Использование точного потока : Да
Отключение кэша аудио : Да
Использование указателей C2 : Нет
Коррекция смещения при чтении : 6
Способность читать области Lead-in и Lead-out : Нет
Заполнение пропущенных сэмплов тишиной : Да
Удаление блоков с тишиной в начале и конце : Нет
При вычислениях CRC использовались нулевые сэмплы : Да
Интерфейс : Установленный внешний ASPI-интерфейс
Выходной формат : Внутренние WAV-операции
Формат сэмплов : 44.100 Гц; 16 бит; стерео
TOC извлечённого CD
Трек | Старт | Длительность | Начальный сектор | Конечный сектор
---------------------------------------------------------------------
1 | 0:00.32 | 4:44.53 | 32 | 21384
2 | 4:45.10 | 3:41.72 | 21385 | 38031
3 | 8:27.07 | 3:23.53 | 38032 | 53309
4 | 11:50.60 | 3:29.02 | 53310 | 68986
5 | 15:19.62 | 4:08.58 | 68987 | 87644
6 | 19:28.45 | 3:08.37 | 87645 | 101781
7 | 22:37.07 | 3:24.00 | 101782 | 117081
8 | 26:01.07 | 3:20.63 | 117082 | 132144
9 | 29:21.70 | 3:22.07 | 132145 | 147301
10 | 32:44.02 | 2:58.53 | 147302 | 160704
11 | 35:42.55 | 3:34.52 | 160705 | 176806
12 | 39:17.32 | 3:04.00 | 176807 | 190606
Характеристики диапазона извлечения и сообщения об ошибках
Выбранный диапазон
Имя файла Z:TempAl Bano & Romina Power - I Grandi Successi CD2.wav
Пиковый уровень 99.0 %
Качество диапазона 100.0 %
CRC теста F218A63D
CRC копии F218A63D
Копирование... OK
Ошибок не произошло
AccurateRip: сводка
Трек 1 нет в базе данных
Трек 2 нет в базе данных
Трек 3 нет в базе данных
Трек 4 нет в базе данных
Трек 5 нет в базе данных
Трек 6 нет в базе данных
Трек 7 нет в базе данных
Трек 8 нет в базе данных
Трек 9 нет в базе данных
Трек 10 нет в базе данных
Трек 11 нет в базе данных
Трек 12 нет в базе данных
Ни одного трека нет в базе AccurateRip
Конец отчёта
CD3
01.Che Angelo Sei (Amore Mio) (3:35)
02.Al Ritmo Di Beguine (Ti Amo) (3:45)
03.Canto Di Libertа (3:01)
04.It's Forever (2:59)
05.Il Ballo Del Qua Qua (2:52)
06.Abbandonati (3:03)
07.Viaggiando (2:59)
08.Meditando (3:10)
09.E Fu Subito Amore (4:02)
10.Perche (3:56)
11.Immagini (4:01)
12.Ciao, Aufwiedersehen, Goodbye (3:37)
Exact Audio Copy V0.99 prebeta 5 from 4. May 2009
Отчёт EAC об извлечении, выполненном 8. ноября 2009, 2:40
Al Bano & Romina Power / I Grandi Successi CD3
Дисковод: ASUS DRW-2014S1T Adapter: 1 ID: 0
Режим чтения : Достоверность
Использование точного потока : Да
Отключение кэша аудио : Да
Использование указателей C2 : Нет
Коррекция смещения при чтении : 6
Способность читать области Lead-in и Lead-out : Нет
Заполнение пропущенных сэмплов тишиной : Да
Удаление блоков с тишиной в начале и конце : Нет
При вычислениях CRC использовались нулевые сэмплы : Да
Интерфейс : Установленный внешний ASPI-интерфейс
Выходной формат : Внутренние WAV-операции
Формат сэмплов : 44.100 Гц; 16 бит; стерео
TOC извлечённого CD
Трек | Старт | Длительность | Начальный сектор | Конечный сектор
---------------------------------------------------------------------
1 | 0:00.32 | 3:35.25 | 32 | 16181
2 | 3:35.57 | 3:45.15 | 16182 | 33071
3 | 7:20.72 | 3:00.48 | 33072 | 46619
4 | 10:21.45 | 2:59.32 | 46620 | 60076
5 | 13:21.02 | 2:52.13 | 60077 | 72989
6 | 16:13.15 | 3:03.02 | 72990 | 86716
7 | 19:16.17 | 2:58.55 | 86717 | 100121
8 | 22:14.72 | 3:09.55 | 100122 | 114351
9 | 25:24.52 | 4:01.43 | 114352 | 132469
10 | 29:26.20 | 3:56.27 | 132470 | 150196
11 | 33:22.47 | 4:00.60 | 150197 | 168256
12 | 37:23.32 | 3:37.00 | 168257 | 184531
Характеристики диапазона извлечения и сообщения об ошибках
Выбранный диапазон
Имя файла Z:TempAl Bano & Romina Power - I Grandi Successi CD3.wav
Пиковый уровень 99.0 %
Качество диапазона 100.0 %
CRC теста 155E8009
CRC копии 155E8009
Копирование... OK
Ошибок не произошло
AccurateRip: сводка
Трек 1 нет в базе данных
Трек 2 нет в базе данных
Трек 3 нет в базе данных
Трек 4 нет в базе данных
Трек 5 нет в базе данных
Трек 6 нет в базе данных
Трек 7 нет в базе данных
Трек 8 нет в базе данных
Трек 9 нет в базе данных
Трек 10 нет в базе данных
Трек 11 нет в базе данных
Трек 12 нет в базе данных
Ни одного трека нет в базе AccurateRip
Конец отчёта
Download Al Bano & Romina Power - I Grandi Successi [3CD Box Set] :
Fileserve.com:
Turbobit.net:
Hotfile.com
Sharingmatrix.com:
Pass: israbox.download
Thanks to the original Publicist "Stanics"



Alternative download links



Related MP3 FLAC to Al Bano Romina Power - I Grandi Successi 3CD Box Set
Feedback
All rights reserved.
WEBBG.com © 2000-2018