We Love - We Love (2010) FLAC
MP3 FLAC WMA APE HD

We Love - We Love (2010) FLAC


Performer:We Love
Album: We Love
Label: BPitch Control
Catalog #:
Genre: Electronic, Experimental, Downtempo,Downbeat, Leftfield, Lo-Fi, Pop, IDM
Year: 2010
Format: FLAC (tracks + .cue)
Bitrate: lossless
Covers: in archive
Amount of tracks: 10
Size RAR: ~ 278 mb
Tracklist:
-----------------
01. Ice Lips [3:56.04]
02. Don't Cross [3:24.57]
03. Cruise Control [4:05.46]
04. Hide Me [3:40.64]
05. Even If [4:14.20]
06. Underwater [4:29.20]
07. No Train No Plane [5:07.25]
08. Our Shapes [4:38.27]
09. Escape Destination [2:55.47]
10. White March [8:10.42]
--------------------------
Total time [44:38]
Exact Audio Copy V0.99 prebeta 4 from 23. January 2008
EAC extraction logfile from 10. October 2010, 23:17
We Love / We Love
Used drive : Optiarc DVD RW AD-7201A Adapter: 0 ID: 0
Read mode : Secure
Utilize accurate stream : Yes
Defeat audio cache : Yes
Make use of C2 pointers : No
Read offset correction : 48
Overread into Lead-In and Lead-Out : No
Fill up missing offset samples with silence : Yes
Delete leading and trailing silent blocks : No
Null samples used in CRC calculations : Yes
Used interface : Native Win32 interface for Win NT & 2000
Gap handling : Appended to previous track
Used output format : User Defined Encoder
Selected bitrate : 128 kBit/s
Quality : High
Add ID3 tag : No
Command line compressor : C:Program FilesExact Audio CopyFlacflac.exe
Additional command line options : -8 -V -T "ARTIST=%a" -T "TITLE=%t" -T "ALBUM=%g" -T "DATE=%y" -T "TRACKNUMBER=%n" -T "TOTALTRACKS=%x" -T "GENRE=%m" -T "ALBUM ARTIST=%v" -T "ALBUMARTIST=%v" -T "COMMENT=EAC V0.99 prebeta 4, Secure Mode, Test & Copy, Accurat
TOC of the extracted CD
Track | Start | Length | Start sector | End sector
---------------------------------------------------------
1 | 0:00.00 | 3:56.04 | 0 | 17703
2 | 3:56.04 | 3:24.57 | 17704 | 33060
3 | 7:20.61 | 4:05.46 | 33061 | 51481
4 | 11:26.32 | 3:40.64 | 51482 | 68045
5 | 15:07.21 | 4:14.20 | 68046 | 87115
6 | 19:21.41 | 4:29.20 | 87116 | 107310
7 | 23:50.61 | 5:07.25 | 107311 | 130360
8 | 28:58.11 | 4:38.27 | 130361 | 151237
9 | 33:36.38 | 2:55.47 | 151238 | 164409
10 | 36:32.10 | 8:10.42 | 164410 | 201201
Track 1
Filename H:TorrentsWe Love - We Love [FLAC]We Love - We Love1. We Love - Ice Lips.wav
Pre-gap length 0:00:02.00
Peak level 98.7 %
Track quality 100.0 %
Test CRC C4C0BCBA
Copy CRC C4C0BCBA
Track not present in AccurateRip database
Copy OK
Track 2
Filename H:TorrentsWe Love - We Love [FLAC]We Love - We Love2. We Love - Don't Cross.wav
Peak level 100.0 %
Track quality 100.0 %
Test CRC 131F0AB3
Copy CRC 131F0AB3
Track not present in AccurateRip database
Copy OK
Track 3
Filename H:TorrentsWe Love - We Love [FLAC]We Love - We Love3. We Love - Cruise Control.wav
Peak level 99.2 %
Track quality 100.0 %
Test CRC 4F404651
Copy CRC 4F404651
Track not present in AccurateRip database
Copy OK
Track 4
Filename H:TorrentsWe Love - We Love [FLAC]We Love - We Love4. We Love - Hide Me.wav
Peak level 100.0 %
Track quality 100.0 %
Test CRC F1D60FBD
Copy CRC F1D60FBD
Track not present in AccurateRip database
Copy OK
Track 5
Filename H:TorrentsWe Love - We Love [FLAC]We Love - We Love5. We Love - Even If.wav
Peak level 99.9 %
Track quality 100.0 %
Test CRC D2FC3185
Copy CRC D2FC3185
Track not present in AccurateRip database
Copy OK
Track 6
Filename H:TorrentsWe Love - We Love [FLAC]We Love - We Love6. We Love - Underwater.wav
Peak level 100.0 %
Track quality 99.9 %
Test CRC D5761D48
Copy CRC D5761D48
Track not present in AccurateRip database
Copy OK
Track 7
Filename H:TorrentsWe Love - We Love [FLAC]We Love - We Love7. We Love - No Train No Plane.wav
Peak level 100.0 %
Track quality 100.0 %
Test CRC 13D48518
Copy CRC 13D48518
Track not present in AccurateRip database
Copy OK
Track 8
Filename H:TorrentsWe Love - We Love [FLAC]We Love - We Love8. We Love - Our Shapes.wav
Pre-gap length 0:00:00.30
Peak level 100.0 %
Track quality 100.0 %
Test CRC 383B1FAF
Copy CRC 383B1FAF
Track not present in AccurateRip database
Copy OK
Track 9
Filename H:TorrentsWe Love - We Love [FLAC]We Love - We Love9. We Love - Escape Destination.wav
Pre-gap length 0:00:00.20
Peak level 99.9 %
Track quality 99.9 %
Test CRC 3B992274
Copy CRC 3B992274
Track not present in AccurateRip database
Copy OK
Track 10
Filename H:TorrentsWe Love - We Love [FLAC]We Love - We Love10. We Love - White March.wav
Peak level 100.0 %
Track quality 100.0 %
Test CRC E7C2B5A3
Copy CRC E7C2B5A3
Track not present in AccurateRip database
Copy OK
None of the tracks are present in the AccurateRip database
No errors occurred
End of status report
--------------------
AUDIOCHECKER v2.0 beta (build 457) - by Dester - [email protected]
~~~~~~~~~~~~~~~~~~~~~~~~~~~~~~~~~~
Started at: суббота, 30. 10. 2010. - 9:22.44
10 files found
01 -===- E:музыкаНовая папкаНовая папкаWe Love - We Love FLACWe Love - We Love [FLAC]1. We Love - Ice Lips.flac
Extracted successfully
Conclusion: this track is CDDA with probability 100%
Tempfile successfully deleted.
02 -===- E:музыкаНовая папкаНовая папкаWe Love - We Love FLACWe Love - We Love [FLAC]2. We Love - Don't Cross.flac
Extracted successfully
Conclusion: this track is CDDA with probability 99%
Tempfile successfully deleted.
03 -===- E:музыкаWe Love - We Love FLACWe Love - We Love [FLAC]3. We Love - Cruise Control.flac
Extracted successfully
Conclusion: this track is CDDA with probability 100%
Tempfile successfully deleted.
04 -===- E:музыкаWe Love - We Love FLACWe Love - We Love [FLAC]4. We Love - Hide Me.flac
Extracted successfully
Conclusion: this track is CDDA with probability 100%
Tempfile successfully deleted.
05 -===- E:музыкаWe Love - We Love FLACWe Love - We Love [FLAC]5. We Love - Even If.flac
Extracted successfully
Conclusion: this track is CDDA with probability 100%
Tempfile successfully deleted.
06 -===- E:музыкаWe Love - We Love FLACWe Love - We Love [FLAC]6. We Love - Underwater.flac
Extracted successfully
Conclusion: this track is CDDA with probability 100%
Tempfile successfully deleted.
07 -===- E:музыкаWe Love - We Love FLACWe Love - We Love [FLAC]7. We Love - No Train No Plane.flac
Extracted successfully
Conclusion: this track is CDDA with probability 100%
Tempfile successfully deleted.
08 -===- E:музыкаWe Love - We Love FLACWe Love - We Love [FLAC]8. We Love - Our Shapes.flac
Extracted successfully
Conclusion: this track is CDDA with probability 100%
Tempfile successfully deleted.
09 -===- E:музыкаWe Love - We Love FLACWe Love - We Love [FLAC]9. We Love - Escape Destination.flac
Extracted successfully
Conclusion: this track is CDDA with probability 100%
Tempfile successfully deleted.
10 -===- E:музыкаWe Love - We Love FLACWe Love - We Love [FLAC]10. We Love - White March.flac
Extracted successfully
Conclusion: this track is CDDA with probability 100%
Tempfile successfully deleted.
Finished at: суббота, 30. 10. 2010. - 9:25.54 (operation time: 0:03.09)
AUDIOCHECKER v2.0 beta (build 457) - by Dester - [email protected]
~~~~~~~~~~~~~~~~~~~~~~~~~~~~~~~~~~
-=== DO NOT EDIT THIS FILE! ===-
Path: ...We Love - We Love [FLAC]
01 -=- 01. We Love - Ice Lips.flac -=- CDDA (100%)
02 -=- 02. We Love - Don't Cross.flac -=- CDDA (99%)
03 -=- 03. We Love - Cruise Control.flac -=- CDDA (100%)
04 -=- 04. We Love - Hide Me.flac -=- CDDA (100%)
05 -=- 05. We Love - Even If.flac -=- CDDA (100%)
06 -=- 06. We Love - Underwater.flac -=- CDDA (100%)
07 -=- 07. We Love - No Train No Plane.flac -=- CDDA (100%)
08 -=- 08. We Love - Our Shapes.flac -=- CDDA (100%)
09 -=- 09. We Love - Escape Destination.flac -=- CDDA (100%)
10 -=- 10. We Love - White March.flac -=- CDDA (100%)
Summary 99,90% CDDA
133553620
--LetitBit.net--
--DepositFiles.com--
--Hotfile.com--




Alternative download links



Related MP3 FLAC to We Love - We Love (2010) FLAC
Feedback
All rights reserved.
WEBBG.com © 2000-2018