Nadaka - The Lotus of the Quiet Mind (2001)
MP3 FLAC WMA APE HD

Nadaka - The Lotus of the Quiet Mind (2001)

Artist: Nadaka
Title Of Album: The Lotus of the Quiet Mind
Year Of Release: 2001
Label: Rain Tree Records
Genre: Meditative
Quality: FLAC (image+.cue) + log
Bitrate: Lossless
Total Time: 55:47
Total Size: 295 Mb
Meditative music from India.
Tracklist:
01. Gayatri (5:36)
02. Bayragi 1 (8:00)
03. Bayragi 2 (6:42)
04. Bamboo talk (3:07)
05. Peace of mind (4:37)
06. The sacred grove (10:52)
07. Calling (3:55)
08. Gayatri Part two (4:53)
09. Om (8:06)
Exact Audio Copy V0.99 prebeta 4 from 23. January 2008
EAC extraction logfile from 29. March 2009, 23:39
Nadaka / The Lotus of the Quiet Mind
Used drive : PIONEER DVD-RW DVR-215D Adapter: 2 ID: 1
Read mode : Secure
Utilize accurate stream : Yes
Defeat audio cache : Yes
Make use of C2 pointers : No
Read offset correction : 48
Overread into Lead-In and Lead-Out : No
Fill up missing offset samples with silence : Yes
Delete leading and trailing silent blocks : No
Null samples used in CRC calculations : Yes
Used interface : Installed external ASPI interface
Used output format : Internal WAV Routines
Sample format : 44.100 Hz; 16 Bit; Stereo
TOC of the extracted CD
Track | Start | Length | Start sector | End sector
---------------------------------------------------------
1 | 0:00.00 | 5:35.47 | 0 | 25171
2 | 5:35.47 | 7:59.43 | 25172 | 61139
3 | 13:35.15 | 6:41.47 | 61140 | 91261
4 | 20:16.62 | 3:06.58 | 91262 | 105269
5 | 23:23.45 | 4:37.27 | 105270 | 126071
6 | 28:00.72 | 10:52.23 | 126072 | 174994
7 | 38:53.20 | 3:55.10 | 174995 | 192629
8 | 42:48.30 | 4:53.04 | 192630 | 214608
9 | 47:41.34 | 8:05.48 | 214609 | 251031
Range status and errors
Selected range
Filename D:Nadaka - The Lotus of the Quiet MindNadaka - The Lotus of the Quiet Mind.wav
Peak level 96.6 %
Range quality 100.0 %
Copy CRC 9AA4F123
Copy OK
No errors occurred
AccurateRip summary
Track 1 not present in database
Track 2 not present in database
Track 3 not present in database
Track 4 not present in database
Track 5 not present in database
Track 6 not present in database
Track 7 not present in database
Track 8 not present in database
Track 9 not present in database
None of the tracks are present in the AccurateRip database
End of status report
FileSonic.com
Turbobit.net



Alternative download links

DOWNLOAD

Related MP3 FLAC to Nadaka - The Lotus of the Quiet Mind (2001)
Feedback
All rights reserved.
WEBBG.com © 2000-2018