Wigwam - Some Several Moons (2005)
MP3 FLAC WMA APE HD

Wigwam - Some Several Moons (2005)

Artist: Wigwam
Title Of Album: Some Several Moons
Year Of Release: 2005
Label: CD Major Leidén Productions
Genre: Progressive Rock
Quality: FLAC (tracks+.cue) + log
Bitrate: Lossless
Total Time: 60:48
Total Size: 415 Mb
«Some Several Moons» - album by Wigwam, released in 2005. Includes 11 great tracks. Meet!
Tracklist:
01. (Intro) (0:12)
02. Chord Squad (4:52)
03. Sandpainting (4:04)
04. Bow Lane (5:42)
05. Kabul Grill (6:03)
06. Cloudy Dream (9:33)
07. Deep Pop (Before The Only One Comes) (6:07)
08. Squaw Valley Non-Event (9:22)
09. Tokyo Joe (One Roll From Paradise) (5:45)
10. Banging On The Ceiling (3:54)
11. Cacobe Bar Two-Step (5:06)
Exact Audio Copy V0.99 prebeta 5 from 4. May 2009
EAC extraction logfile from 9. June 2010, 15:21
Wigwam / Some Several Moons
Used drive : PLEXTOR CD-R PX-W4824A Adapter: 1 ID: 0
Read mode : Secure
Utilize accurate stream : Yes
Defeat audio cache : Yes
Make use of C2 pointers : No
Read offset correction : 98
Overread into Lead-In and Lead-Out : Yes
Fill up missing offset samples with silence : Yes
Delete leading and trailing silent blocks : No
Null samples used in CRC calculations : No
Used interface : Native Win32 interface for Win NT & 2000
Gap handling : Appended to previous track
Used output format : User Defined Encoder
Selected bitrate : 32 kBit/s
Quality : High
Add ID3 tag : No
Command line compressor : C:Program FilesFLACflac.exe
Additional command line options : -V -8 -T "artist=%a" -T "title=%t" -T "album=%g" -T "date=%y" -T "tracknumber=%n" -T "genre=%m" %s
TOC of the extracted CD
Track | Start | Length | Start sector | End sector
---------------------------------------------------------
1 | 0:00.00 | 0:12.11 | 0 | 910
2 | 0:12.11 | 4:54.21 | 911 | 22981
3 | 5:06.32 | 4:05.29 | 22982 | 41385
4 | 9:11.61 | 5:43.32 | 41386 | 67142
5 | 14:55.18 | 6:03.00 | 67143 | 94367
6 | 20:58.18 | 9:34.41 | 94368 | 137458
7 | 30:32.59 | 6:07.57 | 137459 | 165040
8 | 36:40.41 | 9:22.21 | 165041 | 207211
9 | 46:02.62 | 5:47.52 | 207212 | 233288
10 | 51:50.39 | 3:55.40 | 233289 | 250953
11 | 55:46.04 | 5:06.33 | 250954 | 273936
Track 1
Filename C:Wigwam[2005] Some Several MoonsWigwam - 01 - (Intro).wav
Pre-gap length 0:00:02.00
Peak level 35.3 %
Track quality 100.0 %
Test CRC EC526EC3
Copy CRC EC526EC3
Accurately ripped (confidence 4) [C824145A]
Copy OK
Track 2
Filename C:Wigwam[2005] Some Several MoonsWigwam - 02 - Chord Squad.wav
Peak level 97.7 %
Track quality 100.0 %
Test CRC 8C984F57
Copy CRC 8C984F57
Accurately ripped (confidence 4) [733709F7]
Copy OK
Track 3
Filename C:Wigwam[2005] Some Several MoonsWigwam - 03 - Sandpainting.wav
Pre-gap length 0:00:02.00
Peak level 97.7 %
Track quality 99.9 %
Test CRC 3EB9D0B9
Copy CRC 3EB9D0B9
Accurately ripped (confidence 4) [09E81EBD]
Copy OK
Track 4
Filename C:Wigwam[2005] Some Several MoonsWigwam - 04 - Bow Lane.wav
Pre-gap length 0:00:01.00
Peak level 97.7 %
Track quality 100.0 %
Test CRC 237A24E1
Copy CRC 237A24E1
Accurately ripped (confidence 4) [E86EC494]
Copy OK
Track 5
Filename C:Wigwam[2005] Some Several MoonsWigwam - 05 - Kabul Grill.wav
Pre-gap length 0:00:01.00
Peak level 97.7 %
Track quality 100.0 %
Test CRC 51E5906E
Copy CRC 51E5906E
Accurately ripped (confidence 4) [992C8BB4]
Copy OK
Track 6
Filename C:Wigwam[2005] Some Several MoonsWigwam - 06 - Cloudy Dream.wav
Peak level 97.7 %
Track quality 100.0 %
Test CRC 0032E384
Copy CRC 0032E384
Accurately ripped (confidence 4) [B567E7AF]
Copy OK
Track 7
Filename C:Wigwam[2005] Some Several MoonsWigwam - 07 - Deep Pop (Before The Only One Comes).wav
Pre-gap length 0:00:01.00
Peak level 97.7 %
Track quality 100.0 %
Test CRC 65C36C45
Copy CRC 65C36C45
Accurately ripped (confidence 4) [A4E1DB40]
Copy OK
Track 8
Filename C:Wigwam[2005] Some Several MoonsWigwam - 08 - Squaw Valley Non-Event.wav
Peak level 97.7 %
Track quality 100.0 %
Test CRC 377038E8
Copy CRC 377038E8
Accurately ripped (confidence 4) [ED9AC5C6]
Copy OK
Track 9
Filename C:Wigwam[2005] Some Several MoonsWigwam - 09 - Tokyo Joe (One Roll From Paradise).wav
Peak level 97.7 %
Track quality 99.9 %
Test CRC D9346C1E
Copy CRC D9346C1E
Accurately ripped (confidence 4) [C6A4310C]
Copy OK
Track 10
Filename C:Wigwam[2005] Some Several MoonsWigwam - 10 - Banging On The Ceiling.wav
Pre-gap length 0:00:02.00
Peak level 97.7 %
Track quality 100.0 %
Test CRC 33BDC2D8
Copy CRC 33BDC2D8
Accurately ripped (confidence 4) [09991FDB]
Copy OK
Track 11
Filename C:Wigwam[2005] Some Several MoonsWigwam - 11 - Cacobe Bar Two-Step.wav
Pre-gap length 0:00:01.00
Peak level 97.7 %
Track quality 100.0 %
Test CRC 208C960B
Copy CRC 208C960B
Accurately ripped (confidence 4) [D8633725]
Copy OK
All tracks accurately ripped
No errors occurred
End of status report
FileSonic
Wupload



Alternative download links

DOWNLOAD

Related MP3 FLAC to Wigwam - Some Several Moons (2005)
Feedback
All rights reserved.
WEBBG.com © 2000-2018