Ludwig van Beethoven - The Piano Concertos - Vladimir Ashkenazy Ашкенази - Chicago Symphony Orchestra - Sir Georg Solti - 1973, 1984 1996
MP3 FLAC WMA APE HD

Ludwig van Beethoven - The Piano Concertos - Vladimir Ashkenazy Ашкенази - Chicago Symphony Orchestra - Sir Georg Solti - 1973, 1984 1996

Artist: Ludwig van Beethoven
Title Of Album: The Piano Concertos - Vladimir Ashkenazy /Ашкенази/ - Chicago Symphony Orchestra - Sir Georg Solti
Year Of Release: 1996
Genre: Classical
Quality: APE (image+.cue)/mp3
Bitrate: Lossless/320 Kbps
Total Time: CD 1 - 58'29'': CD 2 - 71'03'': CD 3 - 69'37''
Total Size: 691 Mb/480Mb (+5% rec.)
WebSite:
Tracklist:
CD 1
Ludwig van Beethoven - Piano Concerto No. 1 - Six Bagatelles op. 126 - Vladimir Ashkenazy - Chicago Symphony Orchestra - Sir Georg Solti
01. Piano Concerto No. 1 In C major [op. 15] I. Allegro con brio (15:07)
02. Piano Concerto No. 1 In C major [op. 15] II. Largo (12:09)
03. Piano Concerto No. 1 In C major [op. 15] III. Rondo - Allegro (9:12)
04. Six Bagatelles [op. 126] I. Andante con moto, cantabile e compiacevole (3:21)
05. Six Bagatelles [op. 126] II. Allegro (2:35)
06. Six Bagatelles [op. 126] III. Andante cantabile e grazioso (2:40)
07. Six Bagatelles [op. 126] IV. Presto (3:54)
08. Six Bagatelles [op. 126] V. Quasi allegretto (2:20)
09. Six Bagatelles [op. 126] VI. Presto - Andante amabile e con moto (4:07)
10. Für Elise (3:03)
Total Time: 58'32''
CD 2
Ludwig van Beethoven - Piano Concertos 3 & 4 - Vladimir Ashkenazy - Chicago Symphony Orchestra - Sir Georg Solti
01. Piano Concerto No.3 - Allegro con brio (16:25)
02. Piano Concerto No.3 - Largo (10:40)
03. Piano Concerto No.3 - Rondo: Allegro (9:15)
04. Piano Concerto No.4 - Allegro moderato (19:06)
05. Piano Concerto No.4 - Andante con moto (6:13)
06. Piano Concerto No.4 - Rondo: Vivace (9:23)
Total Time: 71'05''
CD 3
Ludwig van Beethoven - Piano Concertos 5 & 2 - Vladimir Ashkenazy - Chicago Symphony Orchestra - Sir Georg Solti
01. Piano Concerto No. 5 Op. 73 (Allegro) (20:42)
02. Piano Concerto No. 5 Op. 73 (Adagio un poco mosso) (8:21)
03. Piano Concerto No. 5 Op. 73 (Rondo Allegro) (11:10)
04. Piano Concerto No. 2 Op. 19 (Allegro con brio) (13:18)
05. Piano Concerto No. 2 Op. 19 (Adagio) (9:49)
06. Piano Concerto No. 2 Op. 19 (Rondo Molto allegro) (6:16)
Total Time: 69'39''
Exact Audio Copy V0.99 prebeta 4 from 23. January 2008
Отчёт EAC об извлечении, выполненном 2. января 2009, 16:24
Ludwig van Beethoven / Piano Concerto No. 1 - Six Bagatelles op. 126 - Vladimir Ashkenazy - Chicago Symphony Orchestra - Sir Georg Solti - CD 1
Дисковод: _NEC DVD_RW ND-4570A Adapter: 0 ID: 0
Режим чтения : Достоверность
Использование точного потока : Да
Отключение кэша аудио : Да
Использование указателей C2 : Нет
Коррекция смещения при чтении : 48
Способность читать области Lead-in и Lead-out : Нет
Заполнение пропущенных сэмплов тишиной : Да
Удаление блоков с тишиной в начале и конце : Нет
При вычислениях CRC использовались нулевые сэмплы : Нет
Интерфейс : Встроенный Win32-интерфейс для Win NT/2000
Выходной формат : Внутренние WAV-операции
Формат сэмплов : 44.100 Гц; 16 бит; стерео
TOC извлечённого CD
Трек | Старт | Длительность | Начальный сектор | Конечный сектор
---------------------------------------------------------------------
1 | 0:00.32 | 15:07.15 | 32 | 68071
2 | 15:07.47 | 12:09.35 | 68072 | 122781
3 | 27:17.07 | 9:12.35 | 122782 | 164216
4 | 36:29.42 | 3:20.68 | 164217 | 179284
5 | 39:50.35 | 2:35.37 | 179285 | 190946
6 | 42:25.72 | 2:39.45 | 190947 | 202916
7 | 45:05.42 | 3:53.73 | 202917 | 220464
8 | 48:59.40 | 2:20.05 | 220465 | 230969
9 | 51:19.45 | 4:06.45 | 230970 | 249464
10 | 55:26.15 | 3:03.32 | 249465 | 263221
Характеристики диапазона извлечения и сообщения об ошибках
Выбранный диапазон
Имя файла Piano Concerto No. 1 - CD 1.wav
Пиковый уровень 99.9 %
Качество диапазона 100.0 %
CRC копии DC289285
Копирование... OK
Ошибок не произошло
Конец отчёта
Exact Audio Copy V0.99 prebeta 4 from 23. January 2008
Отчёт EAC об извлечении, выполненном 2. января 2009, 16:58
Ludwig van Beethoven - Piano Concertos 3 & 4 - Vladimir Ashkenazy - Chicago Symphony Orchestra - Sir Georg Solti - CD 2
Дисковод: _NEC DVD_RW ND-4570A Adapter: 0 ID: 0
Режим чтения : Достоверность
Использование точного потока : Да
Отключение кэша аудио : Да
Использование указателей C2 : Нет
Коррекция смещения при чтении : 48
Способность читать области Lead-in и Lead-out : Нет
Заполнение пропущенных сэмплов тишиной : Да
Удаление блоков с тишиной в начале и конце : Нет
При вычислениях CRC использовались нулевые сэмплы : Нет
Интерфейс : Встроенный Win32-интерфейс для Win NT/2000
Выходной формат : Внутренние WAV-операции
Формат сэмплов : 44.100 Гц; 16 бит; стерео
TOC извлечённого CD
Трек | Старт | Длительность | Начальный сектор | Конечный сектор
---------------------------------------------------------------------
1 | 0:00.32 | 16:25.15 | 32 | 73921
2 | 16:25.47 | 10:40.18 | 73922 | 121939
3 | 27:05.65 | 9:14.57 | 121940 | 163546
4 | 36:20.47 | 19:05.55 | 163547 | 249476
5 | 55:26.27 | 6:13.18 | 249477 | 277469
6 | 61:39.45 | 9:23.30 | 277470 | 319724
Характеристики диапазона извлечения и сообщения об ошибках
Выбранный диапазон
Имя файла Piano Concerto 3 & 4 - CD 2.wav
Пиковый уровень 97.4 %
Качество диапазона 99.9 %
CRC копии 34CCAEE2
Копирование... OK
Ошибок не произошло
Конец отчёта
Exact Audio Copy V0.99 prebeta 4 from 23. January 2008
Отчёт EAC об извлечении, выполненном 2. января 2009, 17:45
Ludwig van Beethoven / Piano Concertos 5 & 2 - Vladimir Ashkenazy - Chicago Symphony Orchestra - Sir Georg Solti - CD 3
Дисковод: _NEC DVD_RW ND-4570A Adapter: 0 ID: 0
Режим чтения : Достоверность
Использование точного потока : Да
Отключение кэша аудио : Да
Использование указателей C2 : Нет
Коррекция смещения при чтении : 48
Способность читать области Lead-in и Lead-out : Нет
Заполнение пропущенных сэмплов тишиной : Да
Удаление блоков с тишиной в начале и конце : Нет
При вычислениях CRC использовались нулевые сэмплы : Нет
Интерфейс : Встроенный Win32-интерфейс для Win NT/2000
Выходной формат : Внутренние WAV-операции
Формат сэмплов : 44.100 Гц; 16 бит; стерео
TOC извлечённого CD
Трек | Старт | Длительность | Начальный сектор | Конечный сектор
---------------------------------------------------------------------
1 | 0:00.32 | 20:41.73 | 32 | 93179
2 | 20:42.30 | 8:21.17 | 93180 | 130771
3 | 29:03.47 | 11:10.18 | 130772 | 181039
4 | 40:13.65 | 13:17.70 | 181040 | 240884
5 | 53:31.60 | 9:49.32 | 240885 | 285091
6 | 63:21.17 | 6:15.68 | 285092 | 313284
Характеристики диапазона извлечения и сообщения об ошибках
Выбранный диапазон
Имя файла Piano Concertos 5 & 2 - CD 3.wav
Пиковый уровень 97.2 %
Качество диапазона 99.9 %
CRC копии EF448B98
Копирование... OK
Ошибок не произошло
Конец отчёта
FLAC
Hotfile.com:

Filesonic.com:
Fileserve.com:
MP3
Hotfile.com:

Filesonic.com:
Fileserve.com:




Alternative download links

part1 part2 part3 part4 part5 part6 part7 part8 part1 part2 part3 part4 part5 part6 part7 part8 part1 part2 part3 part4 part5 part1 part2 part3 part4 part5

Related MP3 FLAC to Ludwig van Beethoven - The Piano Concertos - Vladimir Ashkenazy Ашкенази - Chicago Symphony Orchestra - Sir Georg Solti - 1973, 1984 1996
Feedback
All rights reserved.
WEBBG.com © 2000-2018