Ray Manzarek Roy Rogers - Translucent Blues (2011)
MP3 FLAC WMA APE HD

Ray Manzarek Roy Rogers - Translucent Blues (2011)

Artist: Ray Manzarek & Roy Rogers
Title Of Album: Translucent Blues
Year Of Release: 2011
Label: Blind Pig Records
Genre: Blues, Blues-Rock
Quality: FLAC (*.flac)
Bitrate: lossless
Total Time: 58:58
Total Size: 430 MB
Tracklist:
01. Hurricane (4:27)
02. River of Madness(7:09)
03. Game of Skill (4:00)
04. Fives and Ones (4:02)
05. Kick (4:48)
06. Tension (6:18)
07. Blues In My Shoes (4:51)
08. New Dodge City Blues (4:45)
09. Greenhouse Blues (4:55)
10. Those Hits Just Keep On Comin' (3:31)
11. As You Leave (4:24)
12. An Organ, a Guitar and a Chicken Wing (5:42)
Exact Audio Copy V0.99 prebeta 4 from 23. January 2008
Отчёт EAC об извлечении, выполненном 24. мая 2011, 20:07
Ray Manzarek & Roy Rogers / Translucent Blues
Дисковод: PLEXTOR DVDR PX-880SA Adapter: 1 ID: 1
Режим чтения : Достоверность
Использование точного потока : Да
Отключение кэша аудио : Да
Использование указателей C2 : Нет
Коррекция смещения при чтении : 6
Способность читать области Lead-in и Lead-out : Нет
Заполнение пропущенных сэмплов тишиной : Да
Удаление блоков с тишиной в начале и конце : Нет
При вычислениях CRC использовались нулевые сэмплы : Да
Интерфейс : Встроенный Win32-интерфейс для Win NT/2000
Выходной формат : Пользовательский кодировщик
Выбранный битрейт : 1024 kBit/s
Качество : Высокий
Добавление ID3-тэга : Нет
Утилита сжатия : C:Program FilesExact Audio CopyFLACFLAC.EXE
Дополнительные параметры : -6 -V -T "ARTIST=%a" -T "TITLE=%t" -T "ALBUM=%g" -T "DATE=%y" -T "TRACKNUMBER=%n" -T "GENRE=%m" -T "COMMENT=%e" %s -o %d
TOC извлечённого CD
Трек | Старт | Длительность | Начальный сектор | Конечный сектор
---------------------------------------------------------------------
1 | 0:00.00 | 4:27.38 | 0 | 20062
2 | 4:27.38 | 7:09.28 | 20063 | 52265
3 | 11:36.66 | 4:00.42 | 52266 | 70307
4 | 15:37.33 | 4:02.38 | 70308 | 88495
5 | 19:39.71 | 4:48.72 | 88496 | 110167
6 | 24:28.68 | 6:18.29 | 110168 | 138546
7 | 30:47.22 | 4:51.34 | 138547 | 160405
8 | 35:38.56 | 4:45.25 | 160406 | 181805
9 | 40:24.06 | 4:55.54 | 181806 | 203984
10 | 45:19.60 | 3:31.54 | 203985 | 219863
11 | 48:51.39 | 4:24.15 | 219864 | 239678
12 | 53:15.54 | 5:42.30 | 239679 | 265358
Характеристики диапазона извлечения и сообщения об ошибках
Выбранный диапазон
Имя файла J:BitCometRay Manzarek & Roy Rogers - Translucent Blues(flac)Ray Manzarek & Roy Rogers - Translucent Blues.wav
Пиковый уровень 97.8 %
Качество диапазона 99.9 %
CRC теста 9BE22CE2
CRC копии 9BE22CE2
Копирование... OK
Ошибок не произошло
AccurateRip: сводка
Трек 1 нет в базе данных
Трек 2 нет в базе данных
Трек 3 нет в базе данных
Трек 4 нет в базе данных
Трек 5 нет в базе данных
Трек 6 нет в базе данных
Трек 7 нет в базе данных
Трек 8 нет в базе данных
Трек 9 нет в базе данных
Трек 10 нет в базе данных
Трек 11 нет в базе данных
Трек 12 нет в базе данных
Ни одного трека нет в базе AccurateRip
Конец отчёта
Filesonic.com
Uploaded.to




Alternative download links



Related MP3 FLAC to Ray Manzarek Roy Rogers - Translucent Blues (2011)
Feedback
All rights reserved.
WEBBG.com © 2000-2018