Rory Gallagher - Notes From San Francisco (2011)
MP3 FLAC WMA APE HD

Rory Gallagher - Notes From San Francisco (2011)

Artist: Rory Gallagher
Title Of Album: Notes From San Francisco
Year Of Release: 2011
Label: Eagle Records
Genre: blues, blues rock
Quality: APE (image+.cue) + log
Bitrate: Lossless
Total Time: 120:56
Total Size: 841 Mb
Two CD archive release from the Irish guitarist containing previously unreleased material. In 1977, Rory Gallagher entered a San Francisco studio and recorded a whole album's worth of material. For the first time, the recordings from this session will see the light of day on Notes From San Francisco. The first disc features the results of this recording session. Disc Two consists of a massively energetic live concert recorded in December of 1979 at The Old Waldorf in San Francisco.
Tracklist:
CD1 (Studio)
01. Rue The Day
02. Persuasion
03. B Girl
04. Mississippi Sheiks
05. Wheels Within Wheels
06. Overnight Bag
07. Cruise On Out
08. Brute Force & Ignorance
09. Fuel To The Fire
BONUS TRACKS
10. Wheels Within Wheels (Alt version)
11. Cut A Dash
12. Out On The Tiles
CD2 (Live)
01. Follow Me
02. Shinkicker
03. Off The Handle
04. Bought And Sold
05. I’m Leavin’
06. Tattoo’d Lady
07. Do You Read Me
08. Country Mile
10. Shadow Play
11. Bullfrog Blues
12. Sea Cruise
Exact Audio Copy V0.99 prebeta 5 from 4. May 2009
Отчёт EAC об извлечении, выполненном 23. июня 2011, 22:06
Rory Gallagher / 'Notes From San Francisco' CD 1
Дисковод: SlimtypeDVD A DS8A2S Adapter: 1 ID: 0
Режим чтения : Достоверность
Использование точного потока : Да
Отключение кэша аудио : Да
Использование указателей C2 : Нет
Коррекция смещения при чтении : 6
Способность читать области Lead-in и Lead-out : Нет
Заполнение пропущенных сэмплов тишиной : Да
Удаление блоков с тишиной в начале и конце : Нет
При вычислениях CRC использовались нулевые сэмплы : Да
Интерфейс : Встроенный Win32-интерфейс для Win NT/2000
Выходной формат : Внутренние WAV-операции
Формат сэмплов : 44.100 Гц; 16 бит; стерео
TOC извлечённого CD
Трек | Старт | Длительность | Начальный сектор | Конечный сектор
---------------------------------------------------------------------
1 | 0:00.00 | 4:26.59 | 0 | 20008
2 | 4:26.59 | 4:45.14 | 20009 | 41397
3 | 9:11.73 | 4:42.53 | 41398 | 62600
4 | 13:54.51 | 5:56.18 | 62601 | 89318
5 | 19:50.69 | 3:40.22 | 89319 | 105840
6 | 23:31.16 | 4:46.41 | 105841 | 127331
7 | 28:17.57 | 5:19.63 | 127332 | 151319
8 | 33:37.45 | 5:45.13 | 151320 | 177207
9 | 39:22.58 | 5:43.49 | 177208 | 202981
10 | 45:06.32 | 3:55.23 | 202982 | 220629
11 | 49:01.55 | 3:49.69 | 220630 | 237873
12 | 52:51.49 | 4:22.26 | 237874 | 257549
Характеристики диапазона извлечения и сообщения об ошибках
Выбранный диапазон
Имя файла D:losslessRory Gallagher - 'Notes From San Francisco' CD 1.wav
Пиковый уровень 100.0 %
Качество диапазона 100.0 %
CRC копии 94CDF989
Копирование... OK
Ошибок не произошло
Конец отчёта
CD2
Exact Audio Copy V0.99 prebeta 5 from 4. May 2009
Отчёт EAC об извлечении, выполненном 23. июня 2011, 22:21
RORY GALLAGHER / Notes From San Francisco CD2 Live
Дисковод: SlimtypeDVD A DS8A2S Adapter: 1 ID: 0
Режим чтения : Достоверность
Использование точного потока : Да
Отключение кэша аудио : Да
Использование указателей C2 : Нет
Коррекция смещения при чтении : 6
Способность читать области Lead-in и Lead-out : Нет
Заполнение пропущенных сэмплов тишиной : Да
Удаление блоков с тишиной в начале и конце : Нет
При вычислениях CRC использовались нулевые сэмплы : Да
Интерфейс : Встроенный Win32-интерфейс для Win NT/2000
Выходной формат : Внутренние WAV-операции
Формат сэмплов : 44.100 Гц; 16 бит; стерео
TOC извлечённого CD
Трек | Старт | Длительность | Начальный сектор | Конечный сектор
---------------------------------------------------------------------
1 | 0:00.00 | 6:25.01 | 0 | 28875
2 | 6:25.01 | 3:42.72 | 28876 | 45597
3 | 10:07.73 | 7:01.12 | 45598 | 77184
4 | 17:09.10 | 4:43.70 | 77185 | 98479
5 | 21:53.05 | 4:35.06 | 98480 | 119110
6 | 26:28.11 | 6:49.73 | 119111 | 149858
7 | 33:18.09 | 6:11.05 | 149859 | 177688
8 | 39:29.14 | 3:51.57 | 177689 | 195070
9 | 43:20.71 | 5:51.35 | 195071 | 221430
10 | 49:12.31 | 5:11.42 | 221431 | 244797
11 | 54:23.73 | 5:38.57 | 244798 | 270204
12 | 60:02.55 | 3:39.20 | 270205 | 286649
Характеристики диапазона извлечения и сообщения об ошибках
Выбранный диапазон
Имя файла D:losslessRORY GALLAGHER - Notes From San Francisco CD2 Live.wav
Пиковый уровень 100.0 %
Качество диапазона 100.0 %
CRC копии C4C5CB94
Копирование... OK
Ошибок не произошло
Конец отчёта
FileSonic
Wupload



Alternative download links

DOWNLOAD

Related MP3 FLAC to Rory Gallagher - Notes From San Francisco (2011)
Feedback
All rights reserved.
WEBBG.com © 2000-2018