Billie Holiday - Jazz Ballads 12 (2CD) (2004)
MP3 FLAC WMA APE HD

Billie Holiday - Jazz Ballads 12 (2CD) (2004)

  • Genre: Music, Jazz, FLAC / APE
  • Formats: MP3 FLAC WMA HD APE
  • Album Size: 1499 mb.
  • Archive: ZIP RAR
Artist: Billie Holiday
Title Of Album: Jazz Ballads 12(2CD)
Year Of Release: October 11, 2004
Label: Membran Music
Genre: Jazz, Vocal Jazz
Quality: FLAC (Tracks,cue,log,scans) | MP3
Bitrate: lossless | 320kbps
Total Size: 603 mb/339 mb (+5% rec.)
Tracklist
CD1
01. Lover Man (Oh Where Can You Be)
02. No More
03. Don't Explain
04. You Better Go Now
05. What Is This Thing Called Love
06. Baby, I Don't Cry Over You
07. I'll Look Around
08. You're My Thrill
09. Crazy He Calls Me
10. Please Tell Me Now
11. Somebody's On My M ind
12. East Of The Sun
13. Blue Moon
14. You Go To My Head
15. You Turned The Tables On Me
16. Easy To Love
17. These Foolish Things
18. Solitude
19. My Man
20. Stormy Weather
21. Yesterdays
22. He's Funny That Way
CD2
01. That Ole Devil Called Love
02. Body And Soul
03. Good Morning Heartache
04. No Good Man
05. Big Stuff
06. The Man I Love
07. There Is No Greter Love
08. Easy Living
09. I Loves You Porgy
10. God Bless The Child
11. Blue Turning Grey Over Me
12. Detour Ahead
13. Everything I Have Is Yours
14. Love For Sale
15. Moonglow
16. Tenderly
17. If The Moon Turns Green
18. Autumn In New York
19. Love Me Or Leave Me
20. P.S. I Love You
21. Softly
22. I Thought About You
23. Willow Weep For ME
Exact Audio Copy V0.99 prebeta 4 from 23. January 2008
EAC extraction logfile from 25. May 2009, 16:30
Billie Holiday / Jazz Ballads 12 (disc 1)
Used drive : TSSTcorpCD/DVDW TS-L532M Adapter: 1 ID: 1
Read mode : Secure
Utilize accurate stream : Yes
Defeat audio cache : Yes
Make use of C2 pointers : No
Read offset correction : 116
Overread into Lead-In and Lead-Out : No
Fill up missing offset samples with silence : Yes
Delete leading and trailing silent blocks : No
Null samples used in CRC calculations : No
Used interface : Native Win32 interface for Win NT & 2000
Gap handling : Appended to previous track
Used output format : User Defined Encoder
Selected bitrate : 1024 kBit/s
Quality : High
Add ID3 tag : No
Command line compressor : C:Program FilesExact Audio CopyFLACFLAC.EXE
Additional command line options : -6 -V -T "ARTIST=%a" -T "TITLE=%t" -T "ALBUM=%g" -T "DATE=%y" -T "TRACKNUMBER=%n" -T "GENRE=%m" -T "COMMENT=%e" %s -o %d
TOC of the extracted CD
Track | Start | Length | Start sector | End sector
---------------------------------------------------------
1 | 0:00.00 | 3:17.37 | 0 | 14811
2 | 3:17.37 | 2:48.42 | 14812 | 27453
3 | 6:06.04 | 3:24.08 | 27454 | 42761
4 | 9:30.12 | 2:36.67 | 42762 | 54528
5 | 12:07.04 | 3:06.59 | 54529 | 68537
6 | 15:13.63 | 3:11.45 | 68538 | 82907
7 | 18:25.33 | 3:15.01 | 82908 | 97533
8 | 21:40.34 | 3:24.70 | 97534 | 112903
9 | 25:05.29 | 3:05.45 | 112904 | 126823
10 | 28:10.74 | 3:15.33 | 126824 | 141481
11 | 31:26.32 | 2:58.32 | 141482 | 154863
12 | 34:24.64 | 2:56.41 | 154864 | 168104
13 | 37:21.30 | 3:30.64 | 168105 | 183918
14 | 40:52.19 | 2:56.61 | 183919 | 197179
15 | 43:49.05 | 3:28.49 | 197180 | 212828
16 | 47:17.54 | 3:01.74 | 212829 | 226477
17 | 50:19.53 | 3:35.55 | 226478 | 242657
18 | 53:55.33 | 3:31.18 | 242658 | 258500
19 | 57:26.51 | 2:39.25 | 258501 | 270450
20 | 60:06.01 | 3:43.40 | 270451 | 287215
21 | 63:49.41 | 2:51.08 | 287216 | 300048
22 | 66:40.49 | 3:10.55 | 300049 | 314353
Track 1
Filename E:MuzikaJazz BalladsJazz Ballads 12 (disc 1)1. Lover Man (Oh Where Can You Be).wav
Pre-gap length 0:00:02.00
Peak level 100.0 %
Track quality 100.0 %
Test CRC AAD72C67
Copy CRC AAD72C67
Accurately ripped (confidence 1) [1BD22EEC]
Copy OK
Track 2
Filename E:MuzikaJazz BalladsJazz Ballads 12 (disc 1)2. No More.wav
Pre-gap length 0:00:02.00
Peak level 99.9 %
Track quality 100.0 %
Test CRC 2D1E0ADB
Copy CRC 2D1E0ADB
Accurately ripped (confidence 1) [E7ABD56D]
Copy OK
Track 3
Filename E:MuzikaJazz BalladsJazz Ballads 12 (disc 1)3. Don't Explain.wav
Pre-gap length 0:00:02.00
Peak level 99.9 %
Track quality 100.0 %
Test CRC 5D0B1C23
Copy CRC 5D0B1C23
Accurately ripped (confidence 1) [6205720B]
Copy OK
Track 4
Filename E:MuzikaJazz BalladsJazz Ballads 12 (disc 1)4. You Better Go Now.wav
Pre-gap length 0:00:02.00
Peak level 99.4 %
Track quality 100.0 %
Test CRC 92201939
Copy CRC 92201939
Accurately ripped (confidence 1) [4064A3E7]
Copy OK
Track 5
Filename E:MuzikaJazz BalladsJazz Ballads 12 (disc 1)5. What Is This Thing Called Love.wav
Pre-gap length 0:00:02.00
Peak level 100.0 %
Track quality 100.0 %
Test CRC 61FAD1CB
Copy CRC 61FAD1CB
Accurately ripped (confidence 1) [E408CAA1]
Copy OK
Track 6
Filename E:MuzikaJazz BalladsJazz Ballads 12 (disc 1)6. Baby, I Don't Cry Over You.wav
Pre-gap length 0:00:02.00
Peak level 100.0 %
Track quality 99.9 %
Test CRC 4021C444
Copy CRC 4021C444
Accurately ripped (confidence 1) [42837177]
Copy OK
Track 7
Filename E:MuzikaJazz BalladsJazz Ballads 12 (disc 1)7. I'll Look Around.wav
Pre-gap length 0:00:02.00
Peak level 99.9 %
Track quality 100.0 %
Test CRC 04A51AFD
Copy CRC 04A51AFD
Accurately ripped (confidence 1) [020AA44C]
Copy OK
Track 8
Filename E:MuzikaJazz BalladsJazz Ballads 12 (disc 1)8. You're My Thrill.wav
Pre-gap length 0:00:02.00
Peak level 100.0 %
Track quality 100.0 %
Test CRC 5D95CE59
Copy CRC 5D95CE59
Accurately ripped (confidence 1) [A26E85AA]
Copy OK
Track 9
Filename E:MuzikaJazz BalladsJazz Ballads 12 (disc 1)9. Crazy He Calls Me.wav
Pre-gap length 0:00:02.00
Peak level 99.8 %
Track quality 99.9 %
Test CRC BFA62D03
Copy CRC BFA62D03
Accurately ripped (confidence 1) [FE2A7603]
Copy OK
Track 10
Filename E:MuzikaJazz BalladsJazz Ballads 12 (disc 1)10. Please Tell Me Now.wav
Pre-gap length 0:00:02.00
Peak level 100.0 %
Track quality 100.0 %
Test CRC BEB3B7FD
Copy CRC BEB3B7FD
Accurately ripped (confidence 1) [D3413747]
Copy OK
Track 11
Filename E:MuzikaJazz BalladsJazz Ballads 12 (disc 1)11. Somebody's On My M ind.wav
Pre-gap length 0:00:02.00
Peak level 99.5 %
Track quality 100.0 %
Test CRC 3D543FC7
Copy CRC 3D543FC7
Accurately ripped (confidence 1) [683DB535]
Copy OK
Track 12
Filename E:MuzikaJazz BalladsJazz Ballads 12 (disc 1)12. East Of The Sun.wav
Pre-gap length 0:00:02.00
Peak level 99.6 %
Track quality 100.0 %
Test CRC 6F10C7BF
Copy CRC 6F10C7BF
Accurately ripped (confidence 1) [1116FC21]
Copy OK
Track 13
Filename E:MuzikaJazz BalladsJazz Ballads 12 (disc 1)13. Blue Moon.wav
Pre-gap length 0:00:02.00
Peak level 99.0 %
Track quality 99.9 %
Test CRC 7B28E85F
Copy CRC 7B28E85F
Accurately ripped (confidence 1) [5D942583]
Copy OK
Track 14
Filename E:MuzikaJazz BalladsJazz Ballads 12 (disc 1)14. You Go To My Head.wav
Pre-gap length 0:00:02.00
Peak level 99.3 %
Track quality 100.0 %
Test CRC E9AF2E05
Copy CRC E9AF2E05
Accurately ripped (confidence 1) [F7981428]
Copy OK
Track 15
Filename E:MuzikaJazz BalladsJazz Ballads 12 (disc 1)15. You Turned The Tables On Me.wav
Pre-gap length 0:00:02.00
Peak level 99.1 %
Track quality 100.0 %
Test CRC DD4470AC
Copy CRC DD4470AC
Accurately ripped (confidence 1) [B5C93B02]
Copy OK
Track 16
Filename E:MuzikaJazz BalladsJazz Ballads 12 (disc 1)16. Easy To Love.wav
Pre-gap length 0:00:02.00
Peak level 99.7 %
Track quality 100.0 %
Test CRC 31431C67
Copy CRC 31431C67
Accurately ripped (confidence 1) [0980D6DD]
Copy OK
Track 17
Filename E:MuzikaJazz BalladsJazz Ballads 12 (disc 1)17. These Foolish Things.wav
Pre-gap length 0:00:02.00
Peak level 99.2 %
Track quality 100.0 %
Test CRC B061BCF7
Copy CRC B061BCF7
Accurately ripped (confidence 1) [B0F307DF]
Copy OK
Track 18
Filename E:MuzikaJazz BalladsJazz Ballads 12 (disc 1)18. Solitude.wav
Pre-gap length 0:00:02.00
Peak level 99.7 %
Track quality 100.0 %
Test CRC 63BCD23B
Copy CRC 63BCD23B
Accurately ripped (confidence 1) [C1664AC6]
Copy OK
Track 19
Filename E:MuzikaJazz BalladsJazz Ballads 12 (disc 1)19. My Man.wav
Pre-gap length 0:00:02.00
Peak level 99.0 %
Track quality 100.0 %
Test CRC F4AADB7D
Copy CRC F4AADB7D
Accurately ripped (confidence 1) [D9BCC8FD]
Copy OK
Track 20
Filename E:MuzikaJazz BalladsJazz Ballads 12 (disc 1)20. Stormy Weather.wav
Pre-gap length 0:00:02.00
Peak level 99.4 %
Track quality 100.0 %
Test CRC 84507AEF
Copy CRC 84507AEF
Accurately ripped (confidence 1) [339B0458]
Copy OK
Track 21
Filename E:MuzikaJazz BalladsJazz Ballads 12 (disc 1)21. Yesterdays.wav
Pre-gap length 0:00:02.00
Peak level 100.0 %
Track quality 100.0 %
Test CRC 85FAB2AB
Copy CRC 85FAB2AB
Accurately ripped (confidence 1) [D1B20E71]
Copy OK
Track 22
Filename E:MuzikaJazz BalladsJazz Ballads 12 (disc 1)22. He's Funny That Way.wav
Pre-gap length 0:00:02.00
Peak level 99.5 %
Track quality 100.0 %
Test CRC 3D65420E
Copy CRC 3D65420E
Accurately ripped (confidence 1) [4822E464]
Copy OK
All tracks accurately ripped
No errors occurred
End of status report
AUDIOCHECKER v2.0 beta (build 457) - by Dester - [email protected]
~~~~~~~~~~~~~~~~~~~~~~~~~~~~~~~~~~
-=== DO NOT EDIT THIS FILE! ===-
Path: ...Jazz Ballads 12 (disc 1)
01 -=- 01. Lover Man (Oh Where Can You Be).flac -=- CDDA (100%)
02 -=- 02. No More.flac -=- CDDA (100%)
03 -=- 03. Don't Explain.flac -=- ERROR
04 -=- 04. You Better Go Now.flac -=- CDDA (100%)
05 -=- 05. What Is This Thing Called Love.flac -=- CDDA (100%)
06 -=- 06. Baby, I Don't Cry Over You.flac -=- CDDA (100%)
07 -=- 07. I'll Look Around.flac -=- CDDA (100%)
08 -=- 08. You're My Thrill.flac -=- CDDA (58%)
09 -=- 09. Crazy He Calls Me.flac -=- CDDA (76%)
10 -=- 10. Please Tell Me Now.flac -=- CDDA (42%)
11 -=- 11. Somebody's On My M ind.flac -=- CDDA (43%)
12 -=- 12. East Of The Sun.flac -=- MPEG (90%)
13 -=- 13. Blue Moon.flac -=- MPEG (92%)
14 -=- 14. You Go To My Head.flac -=- MPEG (90%)
15 -=- 15. You Turned The Tables On Me.flac -=- MPEG (91%)
16 -=- 16. Easy To Love.flac -=- MPEG (90%)
17 -=- 17. These Foolish Things.flac -=- MPEG (91%)
18 -=- 18. Solitude.flac -=- MPEG (90%)
19 -=- 19. My Man.flac -=- MPEG (93%)
20 -=- 20. Stormy Weather.flac -=- MPEG (89%)
21 -=- 21. Yesterdays.flac -=- CDDA (85%)
22 -=- 22. He's Funny That Way.flac -=- CDDA (76%)
Summary 50,67% CDDA
221058900
Exact Audio Copy V0.99 prebeta 4 from 23. January 2008
EAC extraction logfile from 25. May 2009, 17:44
Billie Holiday / Jazz Ballads 12 (disc 2)
Used drive : TSSTcorpCD/DVDW TS-L532M Adapter: 1 ID: 1
Read mode : Secure
Utilize accurate stream : Yes
Defeat audio cache : Yes
Make use of C2 pointers : No
Read offset correction : 116
Overread into Lead-In and Lead-Out : No
Fill up missing offset samples with silence : Yes
Delete leading and trailing silent blocks : No
Null samples used in CRC calculations : No
Used interface : Native Win32 interface for Win NT & 2000
Gap handling : Appended to previous track
Used output format : User Defined Encoder
Selected bitrate : 1024 kBit/s
Quality : High
Add ID3 tag : No
Command line compressor : C:Program FilesExact Audio CopyFLACFLAC.EXE
Additional command line options : -6 -V -T "ARTIST=%a" -T "TITLE=%t" -T "ALBUM=%g" -T "DATE=%y" -T "TRACKNUMBER=%n" -T "GENRE=%m" -T "COMMENT=%e" %s -o %d
TOC of the extracted CD
Track | Start | Length | Start sector | End sector
---------------------------------------------------------
1 | 0:00.00 | 2:54.74 | 0 | 13123
2 | 2:54.74 | 3:15.57 | 13124 | 27805
3 | 6:10.56 | 3:08.14 | 27806 | 41919
4 | 9:18.70 | 3:07.66 | 41920 | 56010
5 | 12:26.61 | 2:31.62 | 56011 | 67397
6 | 14:58.48 | 3:06.16 | 67398 | 81363
7 | 18:04.64 | 2:58.16 | 81364 | 94729
8 | 21:03.05 | 3:12.55 | 94730 | 109184
9 | 24:15.60 | 2:57.29 | 109185 | 122488
10 | 27:13.14 | 3:09.48 | 122489 | 136711
11 | 30:22.62 | 2:01.65 | 136712 | 145851
12 | 32:24.52 | 3:03.29 | 145852 | 159605
13 | 35:28.06 | 3:45.45 | 159606 | 176525
14 | 39:13.51 | 2:58.09 | 176526 | 189884
15 | 42:11.60 | 3:00.07 | 189885 | 203391
16 | 45:11.67 | 3:25.22 | 203392 | 218788
17 | 48:37.14 | 2:46.59 | 218789 | 231297
18 | 51:23.73 | 3:42.53 | 231298 | 248000
19 | 55:06.51 | 2:35.27 | 248001 | 259652
20 | 57:42.03 | 3:37.18 | 259653 | 275945
21 | 61:19.21 | 2:57.02 | 275946 | 289222
22 | 64:16.23 | 2:47.23 | 289223 | 301770
23 | 67:03.46 | 3:05.73 | 301771 | 315718
Track 1
Filename E:MuzikaJazz BalladsJazz Ballads 12 (disc 2)1. That Ole Devil Called Love.wav
Pre-gap length 0:00:02.00
Peak level 99.9 %
Track quality 99.9 %
Test CRC 07BE8D3C
Copy CRC 07BE8D3C
Accurately ripped (confidence 1) [712428DA]
Copy OK
Track 2
Filename E:MuzikaJazz BalladsJazz Ballads 12 (disc 2)2. Body And Soul.wav
Pre-gap length 0:00:02.00
Peak level 81.7 %
Track quality 100.0 %
Test CRC A02F3949
Copy CRC A02F3949
Accurately ripped (confidence 1) [2DDF95E0]
Copy OK
Track 3
Filename E:MuzikaJazz BalladsJazz Ballads 12 (disc 2)3. Good Morning Heartache.wav
Pre-gap length 0:00:02.00
Peak level 99.9 %
Track quality 100.0 %
Test CRC 2493E240
Copy CRC 2493E240
Accurately ripped (confidence 1) [A7EBEDB8]
Copy OK
Track 4
Filename E:MuzikaJazz BalladsJazz Ballads 12 (disc 2)4. No Good Man.wav
Pre-gap length 0:00:02.00
Peak level 99.8 %
Track quality 100.0 %
Test CRC AB1FAD6E
Copy CRC AB1FAD6E
Accurately ripped (confidence 1) [C666858F]
Copy OK
Track 5
Filename E:MuzikaJazz BalladsJazz Ballads 12 (disc 2)5. Big Stuff.wav
Pre-gap length 0:00:02.00
Peak level 94.7 %
Track quality 100.0 %
Test CRC 37A85D5C
Copy CRC 37A85D5C
Accurately ripped (confidence 1) [BDC52EDA]
Copy OK
Track 6
Filename E:MuzikaJazz BalladsJazz Ballads 12 (disc 2)6. The Man I Love.wav
Pre-gap length 0:00:02.00
Peak level 100.0 %
Track quality 100.0 %
Test CRC FC22562B
Copy CRC FC22562B
Accurately ripped (confidence 1) [971FE805]
Copy OK
Track 7
Filename E:MuzikaJazz BalladsJazz Ballads 12 (disc 2)7. There Is No Greter Love.wav
Pre-gap length 0:00:02.00
Peak level 99.4 %
Track quality 100.0 %
Test CRC A8CEB56A
Copy CRC A8CEB56A
Accurately ripped (confidence 1) [69A1C8F1]
Copy OK
Track 8
Filename E:MuzikaJazz BalladsJazz Ballads 12 (disc 2)8. Easy Living.wav
Pre-gap length 0:00:02.00
Peak level 99.9 %
Track quality 100.0 %
Test CRC 6D50D7D7
Copy CRC 6D50D7D7
Accurately ripped (confidence 1) [8FE1CCC2]
Copy OK
Track 9
Filename E:MuzikaJazz BalladsJazz Ballads 12 (disc 2)9. I Loves You Porgy.wav
Pre-gap length 0:00:02.00
Peak level 99.4 %
Track quality 100.0 %
Test CRC C833D96C
Copy CRC C833D96C
Accurately ripped (confidence 1) [28620CCB]
Copy OK
Track 10
Filename E:MuzikaJazz BalladsJazz Ballads 12 (disc 2)10. God Bless The Child.wav
Pre-gap length 0:00:02.00
Peak level 100.0 %
Track quality 100.0 %
Test CRC F2031B5B
Copy CRC F2031B5B
Accurately ripped (confidence 1) [0CD1E10B]
Copy OK
Track 11
Filename E:MuzikaJazz BalladsJazz Ballads 12 (disc 2)11. Blue Turning Grey Over Me.wav
Pre-gap length 0:00:02.00
Peak level 99.9 %
Track quality 99.9 %
Test CRC 3969510F
Copy CRC 3969510F
Accurately ripped (confidence 1) [BBC106DB]
Copy OK
Track 12
Filename E:MuzikaJazz BalladsJazz Ballads 12 (disc 2)12. Detour Ahead.wav
Pre-gap length 0:00:02.00
Peak level 99.7 %
Track quality 100.0 %
Test CRC 840E3BE7
Copy CRC 840E3BE7
Accurately ripped (confidence 1) [A8FC1969]
Copy OK
Track 13
Filename E:MuzikaJazz BalladsJazz Ballads 12 (disc 2)13. Everything I Have Is Yours.wav
Pre-gap length 0:00:02.00
Peak level 100.0 %
Track quality 100.0 %
Test CRC 0D8111F2
Copy CRC 0D8111F2
Accurately ripped (confidence 1) [57EDD36C]
Copy OK
Track 14
Filename E:MuzikaJazz BalladsJazz Ballads 12 (disc 2)14. Love For Sale.wav
Pre-gap length 0:00:02.00
Peak level 100.0 %
Track quality 100.0 %
Test CRC 36DC38A8
Copy CRC 36DC38A8
Accurately ripped (confidence 1) [E407C644]
Copy OK
Track 15
Filename E:MuzikaJazz BalladsJazz Ballads 12 (disc 2)15. Moonglow.wav
Pre-gap length 0:00:02.00
Peak level 98.3 %
Track quality 100.0 %
Test CRC 098E1D29
Copy CRC 098E1D29
Accurately ripped (confidence 1) [C184F5AF]
Copy OK
Track 16
Filename E:MuzikaJazz BalladsJazz Ballads 12 (disc 2)16. Tenderly.wav
Pre-gap length 0:00:02.00
Peak level 99.4 %
Track quality 100.0 %
Test CRC 3DC9FCA5
Copy CRC 3DC9FCA5
Accurately ripped (confidence 1) [7BF459BA]
Copy OK
Track 17
Filename E:MuzikaJazz BalladsJazz Ballads 12 (disc 2)17. If The Moon Turns Green.wav
Pre-gap length 0:00:02.00
Peak level 99.5 %
Track quality 100.0 %
Test CRC C6B7AC8E
Copy CRC C6B7AC8E
Accurately ripped (confidence 1) [B03CD04A]
Copy OK
Track 18
Filename E:MuzikaJazz BalladsJazz Ballads 12 (disc 2)18. Autumn In New York.wav
Pre-gap length 0:00:02.00
Peak level 100.0 %
Track quality 100.0 %
Test CRC 375BB3EF
Copy CRC 375BB3EF
Accurately ripped (confidence 1) [5A845825]
Copy OK
Track 19
Filename E:MuzikaJazz BalladsJazz Ballads 12 (disc 2)19. Love Me Or Leave Me.wav
Pre-gap length 0:00:02.00
Peak level 100.0 %
Track quality 100.0 %
Test CRC 92E399FB
Copy CRC 92E399FB
Accurately ripped (confidence 1) [9C86D805]
Copy OK
Track 20
Filename E:MuzikaJazz BalladsJazz Ballads 12 (disc 2)20. P.S. I Love You.wav
Pre-gap length 0:00:02.00
Peak level 100.0 %
Track quality 100.0 %
Test CRC 47B9F882
Copy CRC 47B9F882
Accurately ripped (confidence 1) [CB44E747]
Copy OK
Track 21
Filename E:MuzikaJazz BalladsJazz Ballads 12 (disc 2)21. Softly.wav
Pre-gap length 0:00:02.00
Peak level 100.0 %
Track quality 100.0 %
Test CRC F4822635
Copy CRC F4822635
Accurately ripped (confidence 1) [7C9D0028]
Copy OK
Track 22
Filename E:MuzikaJazz BalladsJazz Ballads 12 (disc 2)22. I Thought About You.wav
Pre-gap length 0:00:02.00
Peak level 94.1 %
Track quality 100.0 %
Test CRC 41E8EAA7
Copy CRC 41E8EAA7
Accurately ripped (confidence 1) [A1236525]
Copy OK
Track 23
Filename E:MuzikaJazz BalladsJazz Ballads 12 (disc 2)23. Willow Weep For ME.wav
Pre-gap length 0:00:02.00
Peak level 98.3 %
Track quality 99.9 %
Test CRC F7F7C39D
Copy CRC F7F7C39D
Accurately ripped (confidence 1) [6D690074]
Copy OK
All tracks accurately ripped
No errors occurred
End of status report
AUDIOCHECKER v2.0 beta (build 457) - by Dester - [email protected]
~~~~~~~~~~~~~~~~~~~~~~~~~~~~~~~~~~
-=== DO NOT EDIT THIS FILE! ===-
Path: ...Jazz Ballads 12 (disc 2)
01 -=- 01. That Ole Devil Called Love.flac -=- CDDA (100%)
02 -=- 02. Body And Soul.flac -=- CDDA (99%)
03 -=- 03. Good Morning Heartache.flac -=- CDDA (100%)
04 -=- 04. No Good Man.flac -=- CDDA (100%)
05 -=- 05. Big Stuff.flac -=- CDDA (100%)
06 -=- 06. The Man I Love.flac -=- CDDA (100%)
07 -=- 07. There Is No Greter Love.flac -=- CDDA (100%)
08 -=- 08. Easy Living.flac -=- CDDA (100%)
09 -=- 09. I Loves You Porgy.flac -=- CDDA (99%)
10 -=- 10. God Bless The Child.flac -=- CDDA (100%)
11 -=- 11. Blue Turning Grey Over Me.flac -=- CDDA (99%)
12 -=- 12. Detour Ahead.flac -=- CDDA (100%)
13 -=- 13. Everything I Have Is Yours.flac -=- CDDA (100%)
14 -=- 14. Love For Sale.flac -=- CDDA (100%)
15 -=- 15. Moonglow.flac -=- CDDA (100%)
16 -=- 16. Tenderly.flac -=- CDDA (100%)
17 -=- 17. If The Moon Turns Green.flac -=- CDDA (100%)
18 -=- 18. Autumn In New York.flac -=- CDDA (99%)
19 -=- 19. Love Me Or Leave Me.flac -=- CDDA (100%)
20 -=- 20. P.S. I Love You.flac -=- CDDA (100%)
21 -=- 21. Softly.flac -=- CDDA (100%)
22 -=- 22. I Thought About You.flac -=- CDDA (100%)
23 -=- 23. Willow Weep For ME.flac -=- CDDA (100%)
Summary 99,83% CDDA
4475588
Billie Holiday was a true artist of her day and rose as a social phenomenon in the 1950s. Her soulful, unique singing voice and her ability to boldly turn any material that she confronted into her own music made her a superstar of her time. Today, Holiday is remembered for her masterpieces, creativity and vivacity, as many of Holiday's songs are as well known today as they were decades ago. Holiday's poignant voice is still considered to be one of the greatest jazz voices of all time.
Ripped by Exact Audio Copy V0.99 from 01-23-2008, encoded to FLAC with 1024kb/s. Ripped from remastered Cd 24/96
Lossless

MP3




Alternative download links

hotfile.com-1 hotfile.com-2 hotfile.com-3 uploaded.to-1 uploaded.to-2 uploaded.to-3 fileserve.com-1 fileserve.com-2 fileserve.com-3 hotfile.com-1 hotfile.com-2 uploaded.to-1 uploaded.to-2

Related MP3 FLAC to Billie Holiday - Jazz Ballads 12 (2CD) (2004)
Feedback
All rights reserved.
WEBBG.com © 2000-2018