Elliott Sharps Terraplane - Secret Life (2005)
MP3 FLAC WMA APE HD

Elliott Sharps Terraplane - Secret Life (2005)

  • Genre: Music, Blues, FLAC / APE
  • Formats: MP3 FLAC WMA HD APE
  • Album Size: 1387 mb.
  • Archive: ZIP RAR
Artist: Elliott Sharp's Terraplane
Title Of Album: Secret Life
Year Of Release: 2005
Label: Intuition
Genre: Blues
Quality: FLAC (image+.cue) + log
Bitrate: Lossless
Total Time: 1:03:36
Total Size: 455 Mb
Elliott Sharp began playing the piano at six. He became intrigued with all types of experimental music, from contemporary classical to free jazz and sophisticated rock. Among his recent projects is the blues/hardcore/free jazz hybrid Terraplane, with bassist Dave Hofstra, saxophonist Sam Furnace, and drummer Sim.
Tracklist:
01 - Highway Null
02 - Clandestine
03 - Take My Leave
04 - Nobody Know
05 - Blue State
06 - USA Out Of NYC!
07 - Prime Crime
08 - Crackertown Two-Step
09 - They Say We Is
10 - Edifice Wrecked
11 - On Down
Exact Audio Copy V1.0 beta 2 from 29. April 2011
EAC extraction logfile from 7. July 2011, 10:48
Elliott Sharp / Secret Life
Used drive : Optiarc DVD RW AD-7240S Adapter: 2 ID: 0
Read mode : Secure
Utilize accurate stream : Yes
Defeat audio cache : Yes
Make use of C2 pointers : No
Read offset correction : 48
Overread into Lead-In and Lead-Out : No
Fill up missing offset samples with silence : Yes
Delete leading and trailing silent blocks : No
Null samples used in CRC calculations : Yes
Used interface : Native Win32 interface for Win NT & 2000
Used output format : User Defined Encoder
Selected bitrate : 768 kBit/s
Quality : High
Add ID3 tag : No
Command line compressor : C:Program FilesExact Audio CopyFLACFLAC.EXE
Additional command line options : -6 -V -T "ARTIST=%artist%" -T "TITLE=%title%" -T "ALBUM=%albumtitle%" -T "DATE=%year%" -T "TRACKNUMBER=%tracknr%" -T "GENRE=%genre%" -T "COMMENT=%comment%" -T "BAND=%albuminterpret%" -T "COMPOSER=%composer%" %haslyrics%--ta
TOC of the extracted CD
Track | Start | Length | Start sector | End sector
---------------------------------------------------------
1 | 0:00.00 | 1:38.16 | 0 | 7365
2 | 1:38.16 | 4:33.54 | 7366 | 27894
3 | 6:11.70 | 6:15.27 | 27895 | 56046
4 | 12:27.22 | 5:52.05 | 56047 | 82451
5 | 18:19.27 | 10:42.27 | 82452 | 130628
6 | 29:01.54 | 9:48.05 | 130629 | 174733
7 | 38:49.59 | 3:26.43 | 174734 | 190226
8 | 42:16.27 | 4:51.37 | 190227 | 212088
9 | 47:07.64 | 8:26.61 | 212089 | 250099
10 | 55:34.50 | 6:44.66 | 250100 | 280465
11 | 62:19.41 | 1:16.14 | 280466 | 286179
Range status and errors
Selected range
Filename C:Documents and SettingsUserМои документыElliott Sharp - Secret Life Elliott Sharp - Secret Life.wav
Peak level 97.6 %
Extraction speed 4.2 X
Range quality 100.0 %
Test CRC 67ED03DC
Copy CRC 67ED03DC
Copy OK
No errors occurred
AccurateRip summary
Track 1 accurately ripped (confidence 2) [96BCAAB9] (AR v2)
Track 2 accurately ripped (confidence 2) [D51A50E2] (AR v2)
Track 3 accurately ripped (confidence 2) [90D46542] (AR v2)
Track 4 accurately ripped (confidence 2) [D0E5658D] (AR v2)
Track 5 accurately ripped (confidence 2) [C43C2763] (AR v2)
Track 6 accurately ripped (confidence 2) [997CA2CA] (AR v2)
Track 7 accurately ripped (confidence 2) [8FD91F94] (AR v2)
Track 8 accurately ripped (confidence 2) [A055A787] (AR v2)
Track 9 accurately ripped (confidence 2) [1F273888] (AR v2)
Track 10 not present in database
Track 11 not present in database
9 track(s) accurately ripped
2 track(s) not present in the AccurateRip database
Some tracks could not be verified as accurate
End of status report
FileSonic
Wupload



Alternative download links

DOWNLOAD

Related MP3 FLAC to Elliott Sharps Terraplane - Secret Life (2005)
Feedback
All rights reserved.
WEBBG.com © 2000-2018