Elfenthal - An Ancient Story (2010)
MP3 FLAC WMA APE HD

Elfenthal - An Ancient Story (2010)

Artist: Elfenthal
Title Of Album: An Ancient Story
Year Of Release: 2010
Label: Screaming Banshee
Genre: Medieval Folk
Quality: FLAC (image+.cue) + log
Bitrate: Lossless
Total Time: 62:45
Total Size: 316 Mb
Starting with an eerie Lord of the Rings style mournful Elvish soprano on 'Caritas Abundat in Omnia', this is a very beautiful album. The second track begins with gentle strings and a eerie buzz, pure medieval perfection gentle and nagging in its intensity gaining weight with each stanza until killer clean vocals perfectly matched cut through the serenity.
Tracklist:
01.Caritas abundat in omnia (3:27) Hildegard von Bingen [XII]
02.Cuncti simus concanentes (4:42) Llibre Vermell [XIV]
03.Si dolce è'l tormento (3:28) C. Monteverdi [XVI-XVII]
04.Non e gran cousa (4:59) King Alfonso X cantiga [XIII]
05.Más vale trocar (3:54) Juan del Encina [XV-XVI]
06.Canarios (3:20) Gaspar Sanz [XVII-XVIII]
07.Niño Dios de Amor herido (4:23) F. Guerrero [XVI]
08.A que por muy gran fremosura (4:24) Alfonso X [XIII]
09.O magnum mysterium (3:49) T. L. De Victoria [XVI-XVII]
10.Dindirindin (3:56) Anonymous, Cancionero de Palacio [XV-XVI]
11.Inperayritz de la cuitat joyosa (4:24) Llibre Vermell [XIV]
12.Elfenthal (4:06) Maite Etoiz & John Kelly [XX-XXI]
13.Si abrá en este baldrés (2:11) Juan del Encina [XV-XVI]
14.Congaudeant catholici (2:41) Codex Calixtinus [XII]
15.Hoy comamos y bebamos (2:31) Juan del Encina [XV-XVI]
16.Wolfskind (bonus track) (6:30) Christine & Judith Rauscher (PurPur)
Exact Audio Copy V0.99 prebeta 5 from 4. May 2009
Отчёт EAC об извлечении, выполненном 27. августа 2011, 21:28
Elfenthal (Maite Itoiz & John Kelly) / An Ancient Story
Дисковод: ASUS DRW-20B1LT Adapter: 1 ID: 1
Режим чтения : Достоверность
Использование точного потока : Да
Отключение кэша аудио : Да
Использование указателей C2 : Нет
Коррекция смещения при чтении : 6
Способность читать области Lead-in и Lead-out : Нет
Заполнение пропущенных сэмплов тишиной : Да
Удаление блоков с тишиной в начале и конце : Нет
При вычислениях CRC использовались нулевые сэмплы : Да
Интерфейс : Встроенный Win32-интерфейс для Win NT/2000
Выходной формат : Пользовательский кодировщик
Выбранный битрейт : 768 kBit/s
Качество : Высокий
Добавление ID3-тэга : Нет
Утилита сжатия : C:Program FilesFLACflac.exe
Дополнительные параметры : -8 -V %s
TOC извлечённого CD
Трек | Старт | Длительность | Начальный сектор | Конечный сектор
---------------------------------------------------------------------
1 | 0:00.00 | 3:27.13 | 0 | 15537
2 | 3:27.13 | 4:42.42 | 15538 | 36729
3 | 8:09.55 | 3:28.34 | 36730 | 52363
4 | 11:38.14 | 4:59.38 | 52364 | 74826
5 | 16:37.52 | 3:54.18 | 74827 | 92394
6 | 20:31.70 | 3:20.69 | 92395 | 107463
7 | 23:52.64 | 4:23.61 | 107464 | 127249
8 | 28:16.50 | 4:24.67 | 127250 | 147116
9 | 32:41.42 | 3:49.36 | 147117 | 164327
10 | 36:31.03 | 3:56.29 | 164328 | 182056
11 | 40:27.32 | 4:24.10 | 182057 | 201866
12 | 44:51.42 | 4:06.46 | 201867 | 220362
13 | 48:58.13 | 2:11.46 | 220363 | 230233
14 | 51:09.59 | 2:41.03 | 230234 | 242311
15 | 53:50.62 | 2:31.35 | 242312 | 253671
16 | 56:22.22 | 6:30.35 | 253672 | 282956
Характеристики диапазона извлечения и сообщения об ошибках
Выбранный диапазон
Имя файла D:DocumentstwdragonМоя музыкаLOSSLESSElfenthalAn Ancient StoryElfenthal (Maite Itoiz & John Kelly) - An Ancient Story.wav
Пиковый уровень 98.8 %
Качество диапазона 100.0 %
CRC теста 549943A1
CRC копии 549943A1
Копирование... OK
Ошибок не произошло
AccurateRip: сводка
Трек 1 нет в базе данных
Трек 2 нет в базе данных
Трек 3 нет в базе данных
Трек 4 нет в базе данных
Трек 5 нет в базе данных
Трек 6 нет в базе данных
Трек 7 нет в базе данных
Трек 8 нет в базе данных
Трек 9 нет в базе данных
Трек 10 нет в базе данных
Трек 11 нет в базе данных
Трек 12 нет в базе данных
Трек 13 нет в базе данных
Трек 14 нет в базе данных
Трек 15 нет в базе данных
Трек 16 нет в базе данных
Ни одного трека нет в базе AccurateRip
Конец отчёта
FileSonic
Wupload



Alternative download links

DOWNLOAD

Related MP3 FLAC to Elfenthal - An Ancient Story (2010)
Feedback
All rights reserved.
WEBBG.com © 2000-2018