Blackfeather - Boppin the Blues - 1972 (2010)
MP3 FLAC WMA APE HD

Blackfeather - Boppin the Blues - 1972 (2010)

Artist: Blackfeather
Title Of Album: Boppin' the Blues
Year Of Release: 1972/2010
Label: Aztec Music
Genre: Hard Rock
Quality: FLAC (tracks+.cue) + log
Bitrate: Lossless
Total Time: 56:15
Total Size: 384 Mb
Blackfeather was an Australian rock group in the 1970s. The group had many members and went through two major incarnations - the earlier (shortlived) heavy rock version of the group, which recorded the album At The Mountains of Madness and the hit single "Seasons of Change".
Tracklist:
01 "Pineapple" (Johns) (3:56)
02 "Gee Willikers (Johns)" (6:38)
03 "Own Way Of Living (Johns)" (7:58)
04 "Red Head Rag (Johns)" (6:26)
05 "D. Boogie (Mama Roll) (Johns)" (5:00)
06 "Get It On (Johns)" (2:52)
07 "Boppin' The Blues (Perkins/Griffith)" (6:35)
08 "Lay Down Lady (Johns)" (5:50)
09 - Boppin' The Blues (Single Version) (3:12)
10 - Find Somebody To Love (2:38)
11 - Slippin' And Slidin' (3:05)
12 - Fly On My Nose (2:00)
Exact Audio Copy V0.99 prebeta 5 from 4. May 2009
EAC extraction logfile from 31. May 2010, 15:34
Blackfeather / Boppin' The Blues
Used drive : TSSTcorpDVD+-RW TS-L632D Adapter: 0 ID: 0
Read mode : Secure
Utilize accurate stream : Yes
Defeat audio cache : Yes
Make use of C2 pointers : No
Read offset correction : 6
Overread into Lead-In and Lead-Out : No
Fill up missing offset samples with silence : Yes
Delete leading and trailing silent blocks : No
Null samples used in CRC calculations : Yes
Used interface : Native Win32 interface for Win NT & 2000
Gap handling : Appended to previous track
Used output format : User Defined Encoder
Selected bitrate : 320 kBit/s
Quality : High
Add ID3 tag : No
Command line compressor : C:Program FilesExact Audio CopyFlacflac.exe
Additional command line options : -V -8 -T "artist=%a" -T "title=%t" -T "album=%g" -T "date=%y" -T "tracknumber=%n" -T "genre=%m" %s
TOC of the extracted CD
Track | Start | Length | Start sector | End sector
---------------------------------------------------------
1 | 0:01.30 | 3:56.06 | 105 | 17810
2 | 3:57.36 | 6:38.05 | 17811 | 47665
3 | 10:35.41 | 7:58.58 | 47666 | 83573
4 | 18:34.24 | 6:26.54 | 83574 | 112577
5 | 25:01.03 | 5:00.63 | 112578 | 135140
6 | 30:01.66 | 2:52.48 | 135141 | 148088
7 | 32:54.39 | 6:35.28 | 148089 | 177741
8 | 39:29.67 | 5:50.43 | 177742 | 204034
9 | 45:20.35 | 3:12.07 | 204035 | 218441
10 | 48:32.42 | 2:38.46 | 218442 | 230337
11 | 51:11.13 | 3:05.16 | 230338 | 244228
12 | 54:16.29 | 2:00.45 | 244229 | 253273
Track 1
Filename E:EACripsBlackfeather - Boppin' The Blues1 - Pineapple.wav
Pre-gap length 0:00:03.40
Peak level 100.0 %
Track quality 99.9 %
Test CRC 7AC27458
Copy CRC 7AC27458
Track not present in AccurateRip database
Copy OK
Track 2
Filename E:EACripsBlackfeather - Boppin' The Blues2 - Gee Willikers.wav
Peak level 100.0 %
Track quality 100.0 %
Test CRC AACEA4C4
Copy CRC AACEA4C4
Track not present in AccurateRip database
Copy OK
Track 3
Filename E:EACripsBlackfeather - Boppin' The Blues3 - Own Way Of Living.wav
Peak level 100.0 %
Track quality 99.9 %
Test CRC 37E2E9D6
Copy CRC 37E2E9D6
Track not present in AccurateRip database
Copy OK
Track 4
Filename E:EACripsBlackfeather - Boppin' The Blues4 - Red Head Rag.wav
Peak level 100.0 %
Track quality 100.0 %
Test CRC AEB409FD
Copy CRC AEB409FD
Track not present in AccurateRip database
Copy OK
Track 5
Filename E:EACripsBlackfeather - Boppin' The Blues5 - D. Blues (Mama Roll).wav
Peak level 100.0 %
Track quality 99.9 %
Test CRC C30CDD74
Copy CRC C30CDD74
Track not present in AccurateRip database
Copy OK
Track 6
Filename E:EACripsBlackfeather - Boppin' The Blues6 - Get It On.wav
Peak level 100.0 %
Track quality 100.0 %
Test CRC 0A689982
Copy CRC 0A689982
Track not present in AccurateRip database
Copy OK
Track 7
Filename E:EACripsBlackfeather - Boppin' The Blues7 - Boppin' The Blues.wav
Peak level 100.0 %
Track quality 100.0 %
Test CRC 38D2C9FC
Copy CRC 38D2C9FC
Track not present in AccurateRip database
Copy OK
Track 8
Filename E:EACripsBlackfeather - Boppin' The Blues8 - Lay Down Lady.wav
Peak level 100.0 %
Track quality 99.9 %
Test CRC 521098A5
Copy CRC 521098A5
Track not present in AccurateRip database
Copy OK
Track 9
Filename E:EACripsBlackfeather - Boppin' The Blues9 - Boppin' The Blues (Single Version).wav
Peak level 100.0 %
Track quality 100.0 %
Test CRC 0AB3BF5F
Copy CRC 0AB3BF5F
Track not present in AccurateRip database
Copy OK
Track 10
Filename E:EACripsBlackfeather - Boppin' The Blues10 - Find Somebody To Love.wav
Peak level 100.0 %
Track quality 100.0 %
Test CRC 96AFA3E5
Copy CRC 96AFA3E5
Track not present in AccurateRip database
Copy OK
Track 11
Filename E:EACripsBlackfeather - Boppin' The Blues11 - Slippin' And Slidin'.wav
Peak level 100.0 %
Track quality 99.8 %
Test CRC 8D79C059
Copy CRC 8D79C059
Track not present in AccurateRip database
Copy OK
Track 12
Filename E:EACripsBlackfeather - Boppin' The Blues12 - Fly On My Nose.wav
Peak level 100.0 %
Track quality 100.0 %
Test CRC A6E0C6C9
Copy CRC A6E0C6C9
Track not present in AccurateRip database
Copy OK
None of the tracks are present in the AccurateRip database
No errors occurred
End of status report
FileSonic
Wupload



Alternative download links

DOWNLOAD

Related MP3 FLAC to Blackfeather - Boppin the Blues - 1972 (2010)
Feedback
All rights reserved.
WEBBG.com © 2000-2018