Muggsy Spanier - The Ragtime Band Sessions - 1939 (1995)
MP3 FLAC WMA APE HD

Muggsy Spanier - The Ragtime Band Sessions - 1939 (1995)

Artist: Muggsy Spanier
Title Of Album: The 'Ragtime Band' Sessions
Year Of Release: 1939/1995
Label: Bluebird
Genre: New Orleans Jazz, Ragtime
Quality: FLAC (tracks+.cue) + log
Bitrate: Lossless
Total Time: 67:11
Total Size: 297 Mb
Francis Joseph Julian "Muggsy" Spanier (November 9, 1906 – February 12, 1967) was a prominent white cornet player based in Chicago. He was renowned as the best trumpet/cornet in Chicago until Bix Beiderbecke entered the scene.
Tracklist:
01. Big Butter And Egg Man (take 1) (3:05)
02. Big Butter And Egg Man (take 2) (3:02)
03. Someday Sweetheart (take 1) (2:44)
04. Someday Sweetheart (take 2) (2:46)
05. Eccentric (2:40)
06. That Da Da Strain (take 1) (2:30)
07. That Da Da Strain (take 2) (2:30)
08. At The Jazz Band Ball (2:52)
09. I Wish I Could Shimmy Like My Sister kate (2:53)
10. Dippermouth Blues (2:27)
11. Livery Stable Blues (take 1) (2:56)
12. Livery Stable Blues (take 2) (3:01)
13. Riverboat Shuffle (take 1) (2:49)
14. Riverboat Shuffle (take 2) (2:44)
15. Relaxin At The Touro (take 1) (3:16)
16. Relaxin At The Touro (take 2) (3:16)
17. At Sundown (2:34)
18. Bluin The Blues (2:39)
19. Lonesome Road (take 1) (2:55)
20. Lonesome Road (take 2) (3:01)
21. Dinah (2:41)
22. Black And Blue (2:39)
23. Mandy, Make Up Your Mind (take 1) (2:34)
24. Mandy, Make Up Your Mind (take 2) (2:37)
EAC extraction logfile from 18. April 2009, 6:50 for CD
Muggsy Spanier / The 'Ragtime Band' Sessions 1939
Used drive : Optiarc DVD RW AD-7590A Adapter: 3 ID: 0
Read mode : Secure with NO C2, accurate stream, disable cache
Read offset correction : 48
Overread into Lead-In and Lead-Out : No
Used output format : C:Program FilesExact Audio CopyFlacflac.exe (User Defined Encoder)
192 kBit/s
Additional command line options : -8 -A tukey(0.25) -A gauss(0.1875) -b 4096 -V -T "artist=%a" -T "title=%t" -T "album=%g" -T "date=%y" -T "tracknumber=%n" -T "genre=%m" %s --sector-align
Other options :
Fill up missing offset samples with silence : Yes
Delete leading and trailing silent blocks : No
Native Win32 interface for Win NT & 2000
Track 1
Filename D:flacMuggsy Spanier - The 'Ragtime Band' Sessions 19391 - Big Butter And Egg Man.wav
Pre-gap length 0:00:02.37
Peak level 79.4 %
Track quality 100.0 %
Test CRC ACE9F078
Copy CRC ACE9F078
Copy OK
Track 2
Filename D:flacMuggsy Spanier - The 'Ragtime Band' Sessions 19392 - Big Butter and Egg Man (take 2).wav
Pre-gap length 0:00:01.58
Peak level 63.0 %
Track quality 100.0 %
Test CRC BE3ED0BD
Copy CRC BE3ED0BD
Copy OK
Track 3
Filename D:flacMuggsy Spanier - The 'Ragtime Band' Sessions 19393 - Someday Sweetheart.wav
Pre-gap length 0:00:01.58
Peak level 70.0 %
Track quality 99.9 %
Test CRC 3BC76E1D
Copy CRC 3BC76E1D
Copy OK
Track 4
Filename D:flacMuggsy Spanier - The 'Ragtime Band' Sessions 19394 - Someday Sweetheart (take 2).wav
Pre-gap length 0:00:01.56
Peak level 68.8 %
Track quality 99.9 %
Test CRC B0050FCC
Copy CRC B0050FCC
Copy OK
Track 5
Filename D:flacMuggsy Spanier - The 'Ragtime Band' Sessions 19395 - Eccentric.wav
Pre-gap length 0:00:01.55
Peak level 62.0 %
Track quality 100.0 %
Test CRC DEBA54BF
Copy CRC DEBA54BF
Copy OK
Track 6
Filename D:flacMuggsy Spanier - The 'Ragtime Band' Sessions 19396 - That Da Da Strain.wav
Pre-gap length 0:00:01.57
Peak level 73.0 %
Track quality 100.0 %
Test CRC C54FD470
Copy CRC C54FD470
Copy OK
Track 7
Filename D:flacMuggsy Spanier - The 'Ragtime Band' Sessions 19397 - That Da Da Strain (take 2).wav
Pre-gap length 0:00:01.57
Peak level 75.4 %
Track quality 100.0 %
Test CRC 815C4465
Copy CRC 815C4465
Copy OK
Track 8
Filename D:flacMuggsy Spanier - The 'Ragtime Band' Sessions 19398 - At the Jazz Band Ball.wav
Pre-gap length 0:00:01.53
Peak level 75.5 %
Track quality 100.0 %
Test CRC C880F127
Copy CRC C880F127
Copy OK
Track 9
Filename D:flacMuggsy Spanier - The 'Ragtime Band' Sessions 19399 - I Wish I Could Shimmy Like My Sister kate.wav
Pre-gap length 0:00:01.56
Peak level 69.6 %
Track quality 100.0 %
Test CRC FCB84B99
Copy CRC FCB84B99
Copy OK
Track 10
Filename D:flacMuggsy Spanier - The 'Ragtime Band' Sessions 193910 - Dippermouth Blues.wav
Pre-gap length 0:00:01.58
Peak level 50.4 %
Track quality 100.0 %
Test CRC 8626DDC1
Copy CRC 8626DDC1
Copy OK
Track 11
Filename D:flacMuggsy Spanier - The 'Ragtime Band' Sessions 193911 - Livery Stable Blues.wav
Pre-gap length 0:00:00.05
Peak level 54.7 %
Track quality 100.0 %
Test CRC E919CAAB
Copy CRC E919CAAB
Copy OK
Track 12
Filename D:flacMuggsy Spanier - The 'Ragtime Band' Sessions 193912 - Livery Stable Blues (take 2).wav
Pre-gap length 0:00:01.59
Peak level 49.8 %
Track quality 100.0 %
Test CRC 403D18F4
Copy CRC 403D18F4
Copy OK
Track 13
Filename D:flacMuggsy Spanier - The 'Ragtime Band' Sessions 193913 - Riverboat Shuffle.wav
Pre-gap length 0:00:01.60
Peak level 64.5 %
Track quality 100.0 %
Test CRC 2E8B161F
Copy CRC 2E8B161F
Copy OK
Track 14
Filename D:flacMuggsy Spanier - The 'Ragtime Band' Sessions 193914 - Riverboat Shuffle (take 2).wav
Pre-gap length 0:00:01.55
Peak level 67.4 %
Track quality 100.0 %
Test CRC FB1C5973
Copy CRC FB1C5973
Copy OK
Track 15
Filename D:flacMuggsy Spanier - The 'Ragtime Band' Sessions 193915 - Relaxin At the Touro.wav
Pre-gap length 0:00:01.56
Peak level 75.9 %
Track quality 100.0 %
Test CRC F35D34A5
Copy CRC F35D34A5
Copy OK
Track 16
Filename D:flacMuggsy Spanier - The 'Ragtime Band' Sessions 193916 - Relaxin At the Touro (take 2).wav
Pre-gap length 0:00:01.54
Peak level 83.9 %
Track quality 99.9 %
Test CRC 5ECE5313
Copy CRC 5ECE5313
Copy OK
Track 17
Filename D:flacMuggsy Spanier - The 'Ragtime Band' Sessions 193917 - At Sundown.wav
Pre-gap length 0:00:01.58
Peak level 72.4 %
Track quality 100.0 %
Test CRC 8E6360B1
Copy CRC 8E6360B1
Copy OK
Track 18
Filename D:flacMuggsy Spanier - The 'Ragtime Band' Sessions 193918 - Bluin the Blues.wav
Pre-gap length 0:00:01.51
Peak level 75.6 %
Track quality 100.0 %
Test CRC BEBA9758
Copy CRC BEBA9758
Copy OK
Track 19
Filename D:flacMuggsy Spanier - The 'Ragtime Band' Sessions 193919 - Lonesome Road.wav
Pre-gap length 0:00:01.51
Peak level 67.6 %
Track quality 100.0 %
Test CRC C543DF9D
Copy CRC C543DF9D
Copy OK
Track 20
Filename D:flacMuggsy Spanier - The 'Ragtime Band' Sessions 193920 - Lonesome Road (take 2).wav
Pre-gap length 0:00:01.56
Peak level 78.3 %
Track quality 100.0 %
Test CRC 9FDA073C
Copy CRC 9FDA073C
Copy OK
Track 21
Filename D:flacMuggsy Spanier - The 'Ragtime Band' Sessions 193921 - Dinah.wav
Pre-gap length 0:00:01.51
Peak level 56.5 %
Track quality 100.0 %
Test CRC 8A9C8ACD
Copy CRC 8A9C8ACD
Copy OK
Track 22
Filename D:flacMuggsy Spanier - The 'Ragtime Band' Sessions 193922 - Black and Blue.wav
Peak level 43.4 %
Track quality 100.0 %
Test CRC 02E51BDE
Copy CRC 02E51BDE
Copy OK
Track 23
Filename D:flacMuggsy Spanier - The 'Ragtime Band' Sessions 193923 - Mandy, Make Up Your Mind.wav
Pre-gap length 0:00:01.49
Peak level 57.4 %
Track quality 99.9 %
Test CRC 9F4222AF
Copy CRC 9F4222AF
Copy OK
Track 24
Filename D:flacMuggsy Spanier - The 'Ragtime Band' Sessions 193924 - Mandy Make Up Your Mind (take 2).wav
Pre-gap length 0:00:00.72
Peak level 73.1 %
Track quality 100.0 %
Test CRC E79825B4
Copy CRC E79825B4
Copy OK
No errors occured
End of status report
FileSonic
Wupload



Alternative download links

DOWNLOAD

Related MP3 FLAC to Muggsy Spanier - The Ragtime Band Sessions - 1939 (1995)
Feedback
All rights reserved.
WEBBG.com © 2000-2018