Aswefall - Bleed (2005)
MP3 FLAC WMA APE HD

Aswefall - Bleed (2005)

Free download links


Aswefall - Bleed (2005) .zip
MP3 version ZIP archive

1598 downloads at 30 mb/s

Aswefall - Bleed (2005) .zip
FLAC/APE version ZIP archive

943 downloads at 22 mb/s
Artist: Aswefall
Title Of Album: Bleed
Year Of Release: June 5, 2005
Label: Kill The DJ Records
Genre: Electronic, Downtempo, Cold-Pop
Quality: Flac (Tracks+Cue+Log+Scans)
Bitrate: Lossless
Total Time: 32:41 min
Total Size: 207Mb
WebSite:
Tracklist:
1. Between Us 3:17
Vocals - Daniella D'Ambrosio
2. As I Fall 4:33
3. Ride 4:41
4. Take Me With You 4:08
Vocals - Tim Keegan
5. Rocher 2:29
6. Youngeez 6:10
7. Game We Play 3:57
Vocals - Daniella D'Ambrosio , Edo
8. Poussière 3:20
Exact Audio Copy V0.99 prebeta 4 from 23. January 2008
EAC extraction logfile from 14. August 2008, 10:22
Aswefall / Bleed
Used drive : HL-DT-STDVDRAM GH20NS10 Adapter: 3 ID: 0
Read mode : Secure
Utilize accurate stream : Yes
Defeat audio cache : Yes
Make use of C2 pointers : No
Read offset correction : 667
Overread into Lead-In and Lead-Out : No
Fill up missing offset samples with silence : Yes
Delete leading and trailing silent blocks : No
Null samples used in CRC calculations : Yes
Used interface : Native Win32 interface for Win NT & 2000
Gap handling : Appended to previous track
Used output format : User Defined Encoder
Selected bitrate : 768 kBit/s
Quality : High
Add ID3 tag : No
Command line compressor : C:Program FilesFLACflac.exe
Additional command line options : -V -8 -T "artist=%a" -T "title=%t" -T "album=%g" -T "date=%y" -T "tracknumber=%n" %s
TOC of the extracted CD
Track | Start | Length | Start sector | End sector
---------------------------------------------------------
1 | 0:00.00 | 3:17.06 | 0 | 14780
2 | 3:17.06 | 4:33.58 | 14781 | 35313
3 | 7:50.64 | 4:41.14 | 35314 | 56402
4 | 12:32.03 | 4:08.41 | 56403 | 75043
5 | 16:40.44 | 2:29.47 | 75044 | 86265
6 | 19:10.16 | 6:10.62 | 86266 | 114077
7 | 25:21.03 | 3:57.70 | 114078 | 131922
8 | 29:18.73 | 3:20.47 | 131923 | 146969
Track 1
Filename C:Hi there RIAA, What's up IFPIAswefall - Bleed1 - Between Us.wav
Pre-gap length 0:00:02.00
Peak level 98.8 %
Track quality 100.0 %
Test CRC C9B46CCB
Copy CRC C9B46CCB
Track not present in AccurateRip database
Copy OK
Track 2
Filename C:Hi there RIAA, What's up IFPIAswefall - Bleed2 - As I Fall.wav
Peak level 98.8 %
Track quality 100.0 %
Test CRC 4AA8EFC7
Copy CRC 4AA8EFC7
Track not present in AccurateRip database
Copy OK
Track 3
Filename C:Hi there RIAA, What's up IFPIAswefall - Bleed3 - Ride.wav
Peak level 98.8 %
Track quality 100.0 %
Test CRC 7BDAF37F
Copy CRC 7BDAF37F
Track not present in AccurateRip database
Copy OK
Track 4
Filename C:Hi there RIAA, What's up IFPIAswefall - Bleed4 - Take Me With You.wav
Peak level 98.8 %
Track quality 100.0 %
Test CRC 271ACFE9
Copy CRC 271ACFE9
Track not present in AccurateRip database
Copy OK
Track 5
Filename C:Hi there RIAA, What's up IFPIAswefall - Bleed5 - Rocher.wav
Peak level 98.8 %
Track quality 100.0 %
Test CRC D20913AE
Copy CRC D20913AE
Track not present in AccurateRip database
Copy OK
Track 6
Filename C:Hi there RIAA, What's up IFPIAswefall - Bleed6 - Youngeez.wav
Peak level 98.8 %
Track quality 100.0 %
Test CRC C6201C0B
Copy CRC C6201C0B
Track not present in AccurateRip database
Copy OK
Track 7
Filename C:Hi there RIAA, What's up IFPIAswefall - Bleed7 - A Game We Play.wav
Peak level 98.8 %
Track quality 100.0 %
Test CRC 63E8DC6B
Copy CRC 63E8DC6B
Track not present in AccurateRip database
Copy OK
Track 8
Filename C:Hi there RIAA, What's up IFPIAswefall - Bleed8 - Poussiиre.wav
Peak level 83.2 %
Track quality 100.0 %
Test CRC B6A48AE9
Copy CRC B6A48AE9
Track not present in AccurateRip database
Copy OK
None of the tracks are present in the AccurateRip database
No errors occurred
End of status report
Aswefall – это Климент Ваше и Лео Хеллден, парижане, исповедующие гитарно-синтетический поп в духе новой волны. Дебютный Album дуэта Bleed компактен по хронометражу (едва преодолевает получасовой рубеж) и содержанию: восемь песен гладко прилажены одна к другой. Смурные мотивы, холодноватый звук, выверенный лоск для сторонников восьмидесятнического «ривайвла».
Links
| |




Alternative download links

HOTFILE SHARINGMATRIX UPLOADED

Related MP3 FLAC to Aswefall - Bleed (2005)
Feedback
All rights reserved.
WEBBG.com © 2000-2018