Shy Tiger - Feed the Kitty (1994)
MP3 FLAC WMA APE HD

Shy Tiger - Feed the Kitty (1994)

Artist: Shy Tiger
Title Of Album: Feed the Kitty
Year Of Release: 1994
Label: Suspect
Genre: hard rock
Quality: APE (image+.cue) + log
Bitrate: Lossless
Total Time: 42:19
Total Size: 274 Mb
Hard rock from USA.
Tracklist:
01. Desperate
02. Young and Only
03. Believe in You
04. Lay Your Body Down
05. I'll Never Forget You
06. Will You Be There
07. Hearts on Fire
08. Alright Without You
09. Lay Down and Cry
10. Drink Until She's Cute
Exact Audio Copy V0.99 prebeta 4 from 23. January 2008
EAC extraction logfile from 11. June 2011, 18:30
Shy Tiger / Feed The Kitty
Used drive : PIONEER DVD-RW DVR-212 Adapter: 5 ID: 0
Read mode : Secure
Utilize accurate stream : Yes
Defeat audio cache : Yes
Make use of C2 pointers : No
Read offset correction : 48
Overread into Lead-In and Lead-Out : No
Fill up missing offset samples with silence : Yes
Delete leading and trailing silent blocks : No
Null samples used in CRC calculations : Yes
Used interface : Native Win32 interface for Win NT & 2000
Used output format : Internal WAV Routines
Sample format : 44.100 Hz; 16 Bit; Stereo
TOC of the extracted CD
Track | Start | Length | Start sector | End sector
---------------------------------------------------------
1 | 0:00.32 | 4:35.23 | 32 | 20679
2 | 4:35.55 | 4:52.20 | 20680 | 42599
3 | 9:28.00 | 4:59.70 | 42600 | 65094
4 | 14:27.70 | 5:16.15 | 65095 | 88809
5 | 19:44.10 | 4:50.40 | 88810 | 110599
6 | 24:34.50 | 4:12.22 | 110600 | 129521
7 | 28:46.72 | 3:12.63 | 129522 | 143984
8 | 31:59.60 | 3:25.67 | 143985 | 159426
9 | 35:25.52 | 4:22.18 | 159427 | 179094
10 | 39:47.70 | 3:32.25 | 179095 | 195019
Range status and errors
Selected range
Filename D:tempShy Tiger - Feed The Kitty.wav
Peak level 100.0 %
Range quality 100.0 %
Copy CRC 79C5A683
Copy OK
No errors occurred
AccurateRip summary
Track 1 not present in database
Track 2 not present in database
Track 3 not present in database
Track 4 not present in database
Track 5 not present in database
Track 6 not present in database
Track 7 not present in database
Track 8 not present in database
Track 9 not present in database
Track 10 not present in database
None of the tracks are present in the AccurateRip database
End of status report
FileSonic
Wupload



Alternative download links

DOWNLOAD

Related MP3 FLAC to Shy Tiger - Feed the Kitty (1994)
Feedback
All rights reserved.
WEBBG.com © 2000-2018