Santana - Santana Jam (1994) Unofficial release
MP3 FLAC WMA APE HD

Santana - Santana Jam (1994) Unofficial release

Artist: Santana
Title Of Album: Santana Jam
Year Of Release: 1994
Label: Prime Cuts
Genre: Jazz-Rock, Latin Rock
Quality: APE (Img,cue,log) | MP3
Bitrate: lossless | 320kbps
Total Time: 43:45 min
Total Size: 220 mb/105 mb (+5% rec.)
Tracklist
01. Santana Jam 14:39
02. Soul Sacrifice 4:56
03. Let's Get Ourselves Together 2:10
04. Fried Neckbones & Some Home Fries 10:30
05. Latin Tropical 11:27
Exact Audio Copy V0.99 prebeta 3 from 28. July 2007
Отчёт EAC об извлечении, выполненном 10. июля 2010, 13:38
Santana / Santana Jam
Дисковод: Optiarc DVD RW AD-7560A Adapter: 0 ID: 0
Режим чтения : Достоверность
Использование точного потока : Да
Отключение кэша аудио : Да
Использование указателей C2 : Нет
Коррекция смещения при чтении : 6
Способность читать области Lead-in и Lead-out : Нет
Заполнение пропущенных сэмплов тишиной : Да
Удаление блоков с тишиной в начале и конце : Нет
При вычислениях CRC использовались нулевые сэмплы : Да
Интерфейс : Встроенный Win32-интерфейс для Win NT/2000
Выходной формат : Внутренние WAV-операции
Формат сэмплов : 44.100 Гц; 16 бит; стерео
TOC извлечённого CD
Трек | Старт | Длительность | Начальный сектор | Конечный сектор
---------------------------------------------------------------------
1 | 0:00.32 | 14:42.35 | 32 | 66216
2 | 14:42.67 | 4:55.40 | 66217 | 88381
3 | 19:38.32 | 2:07.13 | 88382 | 97919
4 | 21:45.45 | 10:37.55 | 97920 | 145749
5 | 32:23.25 | 11:22.02 | 145750 | 196901
Характеристики диапазона извлечения и сообщения об ошибках
Выбранный диапазон
Имя файла C:UsersАлександрDesktopSantana - Santana JamSantana - Santana Jam.wav
Пиковый уровень 100.0 %
Качество диапазона 99.9 %
CRC копии 41C73C24
Копирование... OK
Ошибок не произошло

AccurateRip: сводка

Трек 1 точное извлечение (доверие 1) [1247D1B3]
Трек 2 точное извлечение (доверие 1) [31C25ECB]
Трек 3 точное извлечение (доверие 1) [79F3FE41]
Трек 4 точное извлечение (доверие 1) [EF6D9479]
Трек 5 точное извлечение (доверие 1) [F1262CC9]

Все треки извлечены точно
Конец отчёта
Carlos Augusto Alves Santana (born July 20, 1947) is a Mexican-American rock guitarist. Santana became famous in the late 1960s and early 1970s with his band, Santana, which pioneered rock, salsa and jazz fusion. The band's sound featured his melodic, blues-based guitar lines set against Latin and African rhythms featuring percussion instruments such as timbales and congas not generally heard in rock music. Santana continued to work in these forms over the following decades. He experienced a resurgence of popularity and critical acclaim in the late 1990s. Rolling Stone named Santana number 15 on their list of the 100 Greatest Guitarists of All Time in 2003. He has won 10 Grammy Awards and 3 Latin Grammy Awards.
Lossless Links
| |
MP3 Links
| |




Alternative download links

HOTFILE UPLOADED SHARINGMATRIX HOTFILE UPLOADED SHARINGMATRIX

Related MP3 FLAC to Santana - Santana Jam (1994) Unofficial release
Feedback
All rights reserved.
WEBBG.com © 2000-2018