Mariah Carey - Music Box
MP3 FLAC WMA APE HD

Mariah Carey - Music Box

  • Genre: Music, R&B
  • Formats: MP3 FLAC WMA HD APE
  • Album Size: 1609 mb.
  • Archive: ZIP RAR

Free download links


Mariah Carey - Music Box .zip
MP3 version ZIP archive

1609 downloads at 30 mb/s

Mariah Carey - Music Box .zip
FLAC/APE version ZIP archive

943 downloads at 22 mb/s
Artist: Mariah Carey
Title Of Album: Music Box
Year Of Release: 1993
Label: "Columbia"
Genre: Soul,R&B
Quality: MP3 & FLAC (image+.cue+log+cover)
Bitrate: 320 kbps & lossless
Total Time: 47:26 min.
Total Size: 108 mb & 379 mb (+3% recovery)
WebSite:
Tracklist:
---------------------------
01. Dreamlover (3:53)
02. Hero (4:19)
03. Anytime you need a friend (4:26)
04. Music box (4:57)
05. Now that I know (4:19)
06. Never forget you (3:46)
07. Without you (3:36)
08. Just to hold you once again (3:58)
09. I've been thinking about you (4:48)
10. All I've ever wanted (3:52)
11. Everything fades away (Bonustrack) (5:27)
MP3
--Rapidshare.com--
--Narod.ru--
--Unibytes.com--
--Megaupload.com--
FLAC
Exact Audio Copy V0.99 prebeta 5 from 4. May 2009
EAC extraction logfile from 12. April 2010, 14:21
Mariah Carey / Music Box
Used drive : ASUS DRW-2014L1T Adapter: 2 ID: 0
Read mode : Secure
Utilize accurate stream : Yes
Defeat audio cache : Yes
Make use of C2 pointers : No
Read offset correction : 6
Overread into Lead-In and Lead-Out : No
Fill up missing offset samples with silence : Yes
Delete leading and trailing silent blocks : No
Null samples used in CRC calculations : Yes
Used interface : Native Win32 interface for Win NT & 2000
Used output format : Internal WAV Routines
Sample format : 44.100 Hz; 16 Bit; Stereo
TOC of the extracted CD
Track | Start | Length | Start sector | End sector
---------------------------------------------------------
1 | 0:00.00 | 3:53.55 | 0 | 17529
2 | 3:53.55 | 4:19.52 | 17530 | 37006
3 | 8:13.32 | 4:26.28 | 37007 | 56984
4 | 12:39.60 | 4:57.62 | 56985 | 79321
5 | 17:37.47 | 4:19.15 | 79322 | 98761
6 | 21:56.62 | 3:46.38 | 98762 | 115749
7 | 25:43.25 | 3:36.22 | 115750 | 131971
8 | 29:19.47 | 3:58.73 | 131972 | 149894
9 | 33:18.45 | 4:48.35 | 149895 | 171529
10 | 38:07.05 | 3:52.15 | 171530 | 188944
11 | 41:59.20 | 5:27.02 | 188945 | 213471
Range status and errors
Selected range
Filename D:MusicFLACCueEACMariah Carey - Music Box.wav
Peak level 99.1 %
Range quality 100.0 %
Copy CRC A11B5B93
Copy OK
No errors occurred

AccurateRip summary

Track 1 accurately ripped (confidence 162) [9B58D4AE]
Track 2 accurately ripped (confidence 167) [5387E811]
Track 3 accurately ripped (confidence 168) [2A2FB8E9]
Track 4 accurately ripped (confidence 163) [8D54156D]
Track 5 accurately ripped (confidence 165) [58AE61F6]
Track 6 accurately ripped (confidence 168) [2C043709]
Track 7 accurately ripped (confidence 165) [CEA80097]
Track 8 accurately ripped (confidence 164) [F61684DE]
Track 9 accurately ripped (confidence 164) [7FA2453F]
Track 10 accurately ripped (confidence 165) [23CE4600]
Track 11 accurately ripped (confidence 160) [6EA0D7C0]

All tracks accurately ripped
End of status report
AUDIOCHECKER v2.0 beta (build 457) - by Dester - [email protected]
~~~~~~~~~~~~~~~~~~~~~~~~~~~~~~~~~~
-=== DO NOT EDIT THIS FILE! ===-
Path: ...MariahCareyMusicBox1993Sony
1 -=- Mariah Carey - Music Box.wav -=- CDDA (100%)
63169124
--Rapidshare.com--
+ + +
--Narod.ru--
--Unibytes.com--
--Megaupload.com--




Alternative download links

Download | Download Download | Download Download | Download Download | Download Download часть 1 Download часть 2 Download часть 3 Download часть 4 Download | Download Download | Download Download | Download

Related MP3 FLAC to Mariah Carey - Music Box
Feedback
All rights reserved.
WEBBG.com © 2000-2018