Nina Simone - The Greatest Hits
MP3 FLAC WMA APE HD

Nina Simone - The Greatest Hits

  • Genre: Music, Jazz, FLAC / APE
  • Formats: MP3 FLAC WMA HD APE
  • Album Size: 1403 mb.
  • Archive: ZIP RAR
Artist: Nina Simone
Title Of Album: Nina Simone - The Greatest Hits
Year Of Release: 14 July 2003
Label: RCA
Genre: Jazz, Vocal Jazz
Quality: FLAC
Bitrate: lossless tracks +cue +log +NO COVER
Total Size: 438,64 Mb
As a Nina lover, I liked this CD. It makes a good effort at bringing together a varied combination of tunes to give an overview of her musical versatility and possibly a great way to introduce her work to someone who may not know much about it (and believe it or not, there are quite a few people out there!). The choice of songs is interesting because there's a bit of everything... love, despair, hope, anger...
I disagree with other reviews that question the choice of recordings because of her voice. I think you can appreciate the maturity of her voice in some of the songs and of course, she was not going to sound like in the 60s forever, but I think that until her last performance she made songs her own and the strength of her character and performance came across every time.
Tracklist:
01. My Baby Just Cares For Me (3:38)
02. I Wish I Knew How It Would Feel To Be Free (3:08)
03. Ain't Got No - I Got Life (2:10)
04. Nobody's Fault But Mine (3:00)
05. Mr. Bojangles (5:01)
06. Here Comes The Sun (3:34)
07. To Love Somebody (2:40)
08. I Want A Little Sugar In My Bowl (2:32)
09. Do I Move You (2:46)
10. My Man's Gone Now (4:16)
11. Backlash Blues (2:30)
12. Since I Fell For You (2:51)
13. Turn Me On (2:25)
14. Compensation (1:36)
15. Suzanne (4:20)
16. Just Like A Woman (4:51)
17. Let It Be Me (3:29)
18. In The Morning (2:23)
19. Do What You Gotta Do (3:00)
20. Save Me (3:24)
21. The Look Of Love (2:22)
22. Why? (The King Of Love Is Dead) (5:48)
Exact Audio Copy V0.99 prebeta 5 from 4. May 2009
EAC extraction logfile from 16. May 2009, 19:14
Nina Simone / The Greatest Hits
Used drive : _NEC DVD_RW ND-3520A Adapter: 1 ID: 0
Read mode : Secure
Utilize accurate stream : Yes
Defeat audio cache : Yes
Make use of C2 pointers : No
Read offset correction : 48
Overread into Lead-In and Lead-Out : No
Fill up missing offset samples with silence : Yes
Delete leading and trailing silent blocks : No
Null samples used in CRC calculations : Yes
Used interface : Native Win32 interface for Win NT & 2000
Gap handling : Appended to previous track
Used output format : User Defined Encoder
Selected bitrate : 768 kBit/s
Quality : High
Add ID3 tag : No
Command line compressor : C:Program FilesExact Audio CopyFlacflac.exe
Additional command line options : -V -8 -T "artist=%a" -T "title=%t" -T "album=%g" -T "date=%y" -T "tracknumber=%n" -T "genre=%m" %s
TOC of the extracted CD
Track | Start | Length | Start sector | End sector
---------------------------------------------------------
1 | 0:00.00 | 3:37.51 | 0 | 16325
2 | 3:37.51 | 3:08.30 | 16326 | 30455
3 | 6:46.06 | 2:10.37 | 30456 | 40242
4 | 8:56.43 | 2:59.45 | 40243 | 53712
5 | 11:56.13 | 5:00.59 | 53713 | 76271
6 | 16:56.72 | 3:34.24 | 76272 | 92345
7 | 20:31.21 | 2:39.59 | 92346 | 104329
8 | 23:11.05 | 2:31.67 | 104330 | 115721
9 | 25:42.72 | 2:45.67 | 115722 | 128163
10 | 28:28.64 | 4:16.03 | 128164 | 147366
11 | 32:44.67 | 2:29.48 | 147367 | 158589
12 | 35:14.40 | 2:50.47 | 158590 | 171386
13 | 38:05.12 | 2:25.25 | 171387 | 182286
14 | 40:30.37 | 1:36.29 | 182287 | 189515
15 | 42:06.66 | 4:19.48 | 189516 | 208988
16 | 46:26.39 | 4:51.23 | 208989 | 230836
17 | 51:17.62 | 3:28.39 | 230837 | 246475
18 | 54:46.26 | 2:23.09 | 246476 | 257209
19 | 57:09.35 | 3:00.16 | 257210 | 270725
20 | 60:09.51 | 3:24.01 | 270726 | 286026
21 | 63:33.52 | 2:22.20 | 286027 | 296696
22 | 65:55.72 | 5:47.57 | 296697 | 322778
Track 1
Filename Nina Simone - The Greatest Hits - 01 - My Baby Just Cares For Me.wav
Pre-gap length 0:00:02.00
Peak level 95.0 %
Track quality 100.0 %
Test CRC 744974E9
Copy CRC 744974E9
Accurately ripped (confidence 21) [3C6BE3B8]
Copy OK
Track 2
Filename Nina Simone - The Greatest Hits - 02 - I Wish I Knew How It Would Feel To Be Free.wav
Pre-gap length 0:00:01.66
Peak level 90.2 %
Track quality 100.0 %
Test CRC 8A18E270
Copy CRC 8A18E270
Accurately ripped (confidence 20) [9094F07C]
Copy OK
Track 3
Filename Nina Simone - The Greatest Hits - 03 - Ain't Got No - I Got Life.wav
Pre-gap length 0:00:01.65
Peak level 74.6 %
Track quality 99.9 %
Test CRC 1421F4EC
Copy CRC 1421F4EC
Accurately ripped (confidence 20) [9A9400F9]
Copy OK
Track 4
Filename Nina Simone - The Greatest Hits - 04 - Nobody's Fault But Mine.wav
Pre-gap length 0:00:01.66
Peak level 81.4 %
Track quality 100.0 %
Test CRC 6E631411
Copy CRC 6E631411
Accurately ripped (confidence 20) [880EB283]
Copy OK
Track 5
Filename Nina Simone - The Greatest Hits - 05 - Mr. Bojangles.wav
Pre-gap length 0:00:01.65
Peak level 90.2 %
Track quality 100.0 %
Test CRC 4000092B
Copy CRC 4000092B
Accurately ripped (confidence 20) [FD70AD61]
Copy OK
Track 6
Filename Nina Simone - The Greatest Hits - 06 - Here Comes The Sun.wav
Pre-gap length 0:00:01.66
Peak level 85.1 %
Track quality 99.9 %
Test CRC 73FAED3F
Copy CRC 73FAED3F
Accurately ripped (confidence 20) [D61E97F9]
Copy OK
Track 7
Filename Nina Simone - The Greatest Hits - 07 - To Love Somebody.wav
Pre-gap length 0:00:01.68
Peak level 84.1 %
Track quality 100.0 %
Test CRC 8820AE45
Copy CRC 8820AE45
Accurately ripped (confidence 20) [D2ABF873]
Copy OK
Track 8
Filename Nina Simone - The Greatest Hits - 08 - I Want A Little Sugar In My Bowl.wav
Pre-gap length 0:00:01.66
Peak level 91.7 %
Track quality 100.0 %
Test CRC 6B9D2414
Copy CRC 6B9D2414
Accurately ripped (confidence 20) [369B4E2A]
Copy OK
Track 9
Filename Nina Simone - The Greatest Hits - 09 - Do I Move You.wav
Pre-gap length 0:00:01.66
Peak level 80.4 %
Track quality 100.0 %
Test CRC E590F574
Copy CRC E590F574
Accurately ripped (confidence 20) [7E4A5103]
Copy OK
Track 10
Filename Nina Simone - The Greatest Hits - 10 - My Man's Gone Now.wav
Pre-gap length 0:00:01.66
Peak level 87.6 %
Track quality 99.9 %
Test CRC 86EC99E7
Copy CRC 86EC99E7
Accurately ripped (confidence 20) [93E801EF]
Copy OK
Track 11
Filename Nina Simone - The Greatest Hits - 11 - Backlash Blues.wav
Pre-gap length 0:00:01.66
Peak level 91.7 %
Track quality 100.0 %
Test CRC EC19718B
Copy CRC EC19718B
Accurately ripped (confidence 20) [0852BE41]
Copy OK
Track 12
Filename Nina Simone - The Greatest Hits - 12 - Since I Fell For You.wav
Pre-gap length 0:00:01.66
Peak level 90.2 %
Track quality 99.8 %
Test CRC CF4FAB1B
Copy CRC CF4FAB1B
Accurately ripped (confidence 20) [5F37FB7D]
Copy OK
Track 13
Filename Nina Simone - The Greatest Hits - 13 - Turn Me On.wav
Pre-gap length 0:00:01.66
Peak level 80.4 %
Track quality 100.0 %
Test CRC 13B9A83D
Copy CRC 13B9A83D
Accurately ripped (confidence 20) [BA10D051]
Copy OK
Track 14
Filename Nina Simone - The Greatest Hits - 14 - Compensation.wav
Pre-gap length 0:00:01.66
Peak level 84.8 %
Track quality 99.8 %
Test CRC 1BE6204B
Copy CRC 1BE6204B
Accurately ripped (confidence 20) [2743AACC]
Copy OK
Track 15
Filename Nina Simone - The Greatest Hits - 15 - Suzanne.wav
Pre-gap length 0:00:01.66
Peak level 89.3 %
Track quality 99.9 %
Test CRC D064BA56
Copy CRC D064BA56
Accurately ripped (confidence 20) [51C52485]
Copy OK
Track 16
Filename Nina Simone - The Greatest Hits - 16 - Just Like A Woman.wav
Pre-gap length 0:00:01.66
Peak level 90.2 %
Track quality 100.0 %
Test CRC CD68F9DB
Copy CRC CD68F9DB
Accurately ripped (confidence 20) [D7BE0CE3]
Copy OK
Track 17
Filename Nina Simone - The Greatest Hits - 17 - Let It Be Me.wav
Pre-gap length 0:00:01.66
Peak level 86.9 %
Track quality 99.9 %
Test CRC E62EE6DA
Copy CRC E62EE6DA
Accurately ripped (confidence 20) [D3E28BB0]
Copy OK
Track 18
Filename Nina Simone - The Greatest Hits - 18 - In The Morning.wav
Pre-gap length 0:00:01.66
Peak level 87.4 %
Track quality 99.9 %
Test CRC 95734AFB
Copy CRC 95734AFB
Accurately ripped (confidence 19) [E410968C]
Copy OK
Track 19
Filename Nina Simone - The Greatest Hits - 19 - Do What You Gotta Do.wav
Pre-gap length 0:00:01.66
Peak level 95.1 %
Track quality 100.0 %
Test CRC 5BF8F616
Copy CRC 5BF8F616
Accurately ripped (confidence 19) [2A166C25]
Copy OK
Track 20
Filename Nina Simone - The Greatest Hits - 20 - Save Me.wav
Pre-gap length 0:00:01.66
Peak level 80.0 %
Track quality 100.0 %
Test CRC 5014886F
Copy CRC 5014886F
Accurately ripped (confidence 20) [BF79699F]
Copy OK
Track 21
Filename Nina Simone - The Greatest Hits - 21 - The Look Of Love.wav
Pre-gap length 0:00:01.66
Peak level 90.2 %
Track quality 100.0 %
Test CRC 7D519D7A
Copy CRC 7D519D7A
Accurately ripped (confidence 20) [234CF9F0]
Copy OK
Track 22
Filename Nina Simone - The Greatest Hits - 22 - Why (The King Of Love Is Dead).wav
Pre-gap length 0:00:01.66
Peak level 87.9 %
Track quality 100.0 %
Test CRC 760D7EF5
Copy CRC 760D7EF5
Accurately ripped (confidence 20) [6E27EB45]
Copy OK
All tracks accurately ripped
No errors occurred
End of status report
Download Nina Simone - The Greatest Hits :
Fileserve.com:
Turbobit.net:
Hotfile.com
Sharingmatrix.com:
Pass: israbox.download
Thanks to the original Publicist "GrBear"



Alternative download links



Related MP3 FLAC to Nina Simone - The Greatest Hits
Feedback
All rights reserved.
WEBBG.com © 2000-2018