Charlie Hunter Quartet - Natty Dread (1997)
MP3 FLAC WMA APE HD

Charlie Hunter Quartet - Natty Dread (1997)

Artist: Charlie Hunter Quartet
Title Of Album: Natty Dread
Year Of Release: 1997
Label: Blue Note Records
Genre: Acid Jazz, Fusion
Quality: FLAC (Img,cue,log,scans)|MP3
Bitrate: lossless | 320kbps
Total Time: 43:03 min
Total Size: 255 mb/104 mb
TRACKLIST
1. Lively up Yourself [Marley] (5:39)
2. No Woman, No Cry [Ford, Marley] (5:16)
3. Them Belly Full [Barrett, Cogill] (5:24)
4. Rebel Music [Barrett, Peart] (4:40)
5. So Jah Seh [Francisco] (3:45)
6. Natty Dread [Barrett, Cole] (4:22)
7. Bend Down Low [Marley] (2:34)
8. Talkin' Blues [Barrett, Cogill] (5:19)
9. Revolution [Marley] (5:59)
Exact Audio Copy V0.99 prebeta 4 from 23. January 2008
EAC extraction logfile from 22. September 2009, 9:14
Charlie Hunter Quartet / Natty Dread
Used drive : _NEC DVD_RW ND-3500AG Adapter: 0 ID: 0
Read mode : Secure
Utilize accurate stream : Yes
Defeat audio cache : Yes
Make use of C2 pointers : No
Read offset correction : 48
Overread into Lead-In and Lead-Out : No
Fill up missing offset samples with silence : Yes
Delete leading and trailing silent blocks : No
Null samples used in CRC calculations : Yes
Used interface : Native Win32 interface for Win NT & 2000
Used output format : User Defined Encoder
Selected bitrate : 768 kBit/s
Quality : High
Add ID3 tag : No
Command line compressor : C:Program FilesExact Audio CopyFLACFLAC.EXE
Additional command line options : -6 -V -T "ARTIST=%a" -T "TITLE=%t" -T "ALBUM=%g" -T "DATE=%y" -T "TRACKNUMBER=%n" -T "GENRE=%m" -T "COMMENT=%e" %s -o %d
TOC of the extracted CD
Track | Start | Length | Start sector | End sector
---------------------------------------------------------
1 | 0:00.00 | 5:39.72 | 0 | 25496
2 | 5:39.72 | 5:16.65 | 25497 | 49261
3 | 10:56.62 | 5:24.50 | 49262 | 73611
4 | 16:21.37 | 4:40.15 | 73612 | 94626
5 | 21:01.52 | 3:45.33 | 94627 | 111534
6 | 24:47.10 | 4:22.10 | 111535 | 131194
7 | 29:09.20 | 2:34.72 | 131195 | 142816
8 | 31:44.17 | 5:19.33 | 142817 | 166774
9 | 37:03.50 | 6:00.00 | 166775 | 193774
Range status and errors
Selected range
Filename J:eMusicRipCharlie Hunter Quartet - Natty Dread.wav
Peak level 100.0 %
Range quality 100.0 %
Test CRC 7F554FE4
Copy CRC 7F554FE4
Copy OK
No errors occurred

AccurateRip summary

Track 1 accurately ripped (confidence 4) [258C35C4]
Track 2 accurately ripped (confidence 4) [173D240D]
Track 3 accurately ripped (confidence 4) [3982EA64]
Track 4 accurately ripped (confidence 4) [5C4CAD81]
Track 5 accurately ripped (confidence 4) [5D81A4B6]
Track 6 accurately ripped (confidence 4) [DA343D80]
Track 7 accurately ripped (confidence 4) [F79570FD]
Track 8 accurately ripped (confidence 4) [BC7E949B]
Track 9 accurately ripped (confidence 4) [2C6EAA08]

All tracks accurately ripped
End of status report
Download




Alternative download links

Bitshare

Related MP3 FLAC to Charlie Hunter Quartet - Natty Dread (1997)
Feedback
All rights reserved.
WEBBG.com © 2000-2018