Jim Hall Trio Tom Harrell - These Rooms (Japan) (1988)
MP3 FLAC WMA APE HD

Jim Hall Trio Tom Harrell - These Rooms (Japan) (1988)

  • Genre: Music, Jazz, FLAC / APE
  • Formats: MP3 FLAC WMA HD APE
  • Album Size: 1834 mb.
  • Archive: ZIP RAR
Artist: Jim Hall Trio & Tom Harrell
Title Of Album: These Rooms (Japan)
Year Of Release: 1988
Label: Denon
Genre: Cool, Post-Bop
Quality: FLAC (tracks+.cue) + log
Bitrate: Lossless
Total Time: 67:16
Total Size: 313 Mb
This 1988 studio date is one of the overlooked treasures in the considerable discography of Jim Hall, possibly due to the label's low-key promotion and less than eye-catching cover art. It is easy why to understand why artists like Art Farmer and Paul Desmond omitted a pianist after hearing a release such as this one, because it would only clutter Hall's soft yet complete accompaniment. Joined by Tom Harrell (heard mostly on fluegelhorn), bassist Steve LaSpina, and drummer Joey Baron, this CD is a delight from start to finish. The interaction of the musicians in the opener, a lively, waltzing "With a Song in My Heart," makes it sound like they have been a working unit for years. The well-conceived arrangement of "Where or When," which Hall dedicated to Basie guitarist Freddie Green (who died the year prior to the sessions), proves to be the most captivating track, with its understated yet consummately swinging air. Hall contributed the tense "Cross Court," a smoking post-bop vehicle, a pulsing calypso written originally for his 1985 Montreux concert with Michel Petrucciani and Wayne Shorter, as well as the haunting ballad "These Rooms," which opens with Harrell's melancholy unaccompanied trumpet solo, and has an abstract solo by the leader. "Something Tells Me" is a lovely bittersweet ballad by Jane Hall (Jim's wife, a talented composer whose work he has often recorded), featuring Hall and Harrell. Hall's unaccompanied take of Duke Ellington's "All Too Soon" makes one wonder why he has never recorded a entire CD of guitar solos. This out of print CD is destined to become a collectible.
Ken Dryden
Tracklist:
01. With a Song in My Heart (Rodgers-Hart)
02. Cross Court (Hall)
03. Something Tells Me (Hall)
04. Bimini (Hall)
05. All Too Soon (Ellington-Sigman)
06. These Rooms (Hall)
07. Darn That Dream (Van Heusen-De Lange)
08. My Funny Valentine (Rodgers-Hart)
09. Where or When (Rodgers-Hart)
10. From Now On (Harrell)
Exact Audio Copy V0.99 prebeta 5 from 4. May 2009
EAC extraction logfile from 16. February 2011, 17:25
Jim Hall Trio Featuring Tom Harrell / These Rooms
Used drive : PHILIPS SPD2519T Adapter: 1 ID: 0
Read mode : Secure
Utilize accurate stream : Yes
Defeat audio cache : Yes
Make use of C2 pointers : No
Read offset correction : 6
Overread into Lead-In and Lead-Out : No
Fill up missing offset samples with silence : Yes
Delete leading and trailing silent blocks : No
Null samples used in CRC calculations : Yes
Used interface : Installed external ASPI interface
Gap handling : Appended to previous track
Used output format : User Defined Encoder
Selected bitrate : 1024 kBit/s
Quality : High
Add ID3 tag : No
Command line compressor : C:Program FilesFLACflac.exe
Additional command line options : -8 -V -T "ARTIST=%a" -T "TITLE=%t" -T "ALBUM=%g" -T "DATE=%y" -T "TRACKNUMBER=%n" -T "GENRE=%m" -T "COMMENT=EAC FLAC -8" %s
TOC of the extracted CD
Track | Start | Length | Start sector | End sector
---------------------------------------------------------
1 | 0:00.00 | 8:26.25 | 0 | 37974
2 | 8:26.25 | 5:15.55 | 37975 | 61654
3 | 13:42.05 | 5:13.68 | 61655 | 85197
4 | 18:55.73 | 9:20.65 | 85198 | 127262
5 | 28:16.63 | 4:02.42 | 127263 | 145454
6 | 32:19.30 | 11:28.65 | 145455 | 197119
7 | 43:48.20 | 4:08.13 | 197120 | 215732
8 | 47:56.33 | 6:25.40 | 215733 | 244647
9 | 54:21.73 | 5:51.45 | 244648 | 271017
10 | 60:13.43 | 7:08.60 | 271018 | 303177
Track 1
Filename I:S320-New RipJim Hall Trio Featuring Tom Harrell - These Rooms 1 - With A Song In My Heart.wav
Pre-gap length 0:00:02.00
Peak level 86.9 %
Track quality 100.0 %
Test CRC D1FAE6DB
Copy CRC D1FAE6DB
Accurately ripped (confidence 6) [A97807A2]
Copy OK
Track 2
Filename I:S320-New RipJim Hall Trio Featuring Tom Harrell - These Rooms 2 - Cross Court.wav
Pre-gap length 0:00:00.30
Peak level 95.3 %
Track quality 100.0 %
Test CRC D6955580
Copy CRC D6955580
Accurately ripped (confidence 6) [C5B823ED]
Copy OK
Track 3
Filename I:S320-New RipJim Hall Trio Featuring Tom Harrell - These Rooms 3 - Something Tells Me.wav
Peak level 74.7 %
Track quality 100.0 %
Test CRC AF8EDDF6
Copy CRC AF8EDDF6
Accurately ripped (confidence 6) [C031D38D]
Copy OK
Track 4
Filename I:S320-New RipJim Hall Trio Featuring Tom Harrell - These Rooms 4 - Bimini.wav
Pre-gap length 0:00:03.25
Peak level 93.4 %
Track quality 99.9 %
Test CRC 10D996F0
Copy CRC 10D996F0
Accurately ripped (confidence 6) [E35D38A0]
Copy OK
Track 5
Filename I:S320-New RipJim Hall Trio Featuring Tom Harrell - These Rooms 5 - All Too Soon.wav
Pre-gap length 0:00:00.45
Peak level 67.3 %
Track quality 100.0 %
Test CRC 9A6E5A97
Copy CRC 9A6E5A97
Accurately ripped (confidence 6) [493D321D]
Copy OK
Track 6
Filename I:S320-New RipJim Hall Trio Featuring Tom Harrell - These Rooms 6 - These Rooms.wav
Pre-gap length 0:00:00.40
Peak level 92.1 %
Track quality 100.0 %
Test CRC 3F1236E5
Copy CRC 3F1236E5
Accurately ripped (confidence 6) [D76C5F91]
Copy OK
Track 7
Filename I:S320-New RipJim Hall Trio Featuring Tom Harrell - These Rooms 7 - Darn That Dream.wav
Pre-gap length 0:00:01.20
Peak level 65.0 %
Track quality 100.0 %
Test CRC 9926D167
Copy CRC 9926D167
Accurately ripped (confidence 6) [26DBC7EE]
Copy OK
Track 8
Filename I:S320-New RipJim Hall Trio Featuring Tom Harrell - These Rooms 8 - My Funny Valentine.wav
Pre-gap length 0:00:01.63
Peak level 83.8 %
Track quality 99.9 %
Test CRC 5EDAD3D5
Copy CRC 5EDAD3D5
Accurately ripped (confidence 6) [D29E1B98]
Copy OK
Track 9
Filename I:S320-New RipJim Hall Trio Featuring Tom Harrell - These Rooms 9 - Where Or When.wav
Peak level 91.9 %
Track quality 100.0 %
Test CRC 5489CEBF
Copy CRC 5489CEBF
Accurately ripped (confidence 6) [0A3800E8]
Copy OK
Track 10
Filename I:S320-New RipJim Hall Trio Featuring Tom Harrell - These Rooms 10 - From Now On.wav
Pre-gap length 0:00:00.65
Peak level 90.3 %
Track quality 100.0 %
Test CRC 240CF1BE
Copy CRC 240CF1BE
Accurately ripped (confidence 6) [C1D6B044]
Copy OK
All tracks accurately ripped
No errors occurred
End of status report
FileSonic.com
Turbobit.net



Alternative download links

DOWNLOAD

Related MP3 FLAC to Jim Hall Trio Tom Harrell - These Rooms (Japan) (1988)
Feedback
All rights reserved.
WEBBG.com © 2000-2018