Gilad Atzmon The Orient House Ensemble - Gilad Atzmon The Orient House Ensemble (2000)
MP3 FLAC WMA APE HD

Gilad Atzmon The Orient House Ensemble - Gilad Atzmon The Orient House Ensemble (2000)

Artist: Gilad Atzmon & The Orient House Ensemble
Title Of Album: Gilad Atzmon & The Orient House Ensemble
Year Of Release: 2000
Label: Enja
Genre: Jazz, Ethnic, Fusion
Quality: FLAC (Img,cue,log,scans)|MP3
Bitrate: lossless | 320kbps
Total Time: 57:34 min
Total Size: 262 mb/139 mb (+%rec)
TRACKLIST
1. Pardonnez Nous (Trad. Ladino) 6:56
2. Shir (Gilad Atzmon) 6:30
3. Miron Dance (Trad. Ladino) 9:12
4. Nard-ish (Miles Davis) 8:25
5. Rai Print (Wayne Shorter) 7:14
6. Miserlou (Trad. Turkish) 12:17
7. Orient House (Gilad Atzmon) 2:40
8. Balladi (Gilad Atzmon) 5:40
Personnel:
Gilad Atzmon (soprano sax, clarinet, sol)
Frank Harrison (piano, melodica)
Oli Hayhurst (double bass)
Asaf Sirkis (drums, bandir)
Gilad Atzmon & The Orient House Ensemble’s eponymous debut album was originally released in 2000 on the Enja/Tiptoe label. This is contemporary jazz that is still clearly recognizable as jazz, yet with a distinct World Jazz twist. Equally, one could argue, this is (at least in part) contemporary Ladino/Sephardi (Judeo-Spanish) music or Middle Eastern music with a strong jazz twist. No matter, for either way, this is an outstanding and exciting album that remains refreshing even nearly three years after its release. The Orient House Ensemble is led by Gilad Atzmon, an Israeli-born secular Jew living in self-imposed exile in London, England. Atzmon is an outstanding saxophonist and clarinetist with a superb, distinctive voice on both instruments and a flawless technique. The other members of the ensemble are Asaf Sirkis, an Israeli-born drummer/percussionist, and two young Cambridge musicians, Frank Harrison on piano and melodica and Oli Hayhurst on bass. The ensemble playing is tight and empathic. On Gilad Atzmon & The Orient House Ensemble, Atzmon is revealed as a supreme improviser of flowing melodies, deeply steeped on the one hand in swing and bebop as well as post-bop, on the other in Ladino/Sephardi and other Middle Eastern melodies and rhythms. In essence, the music is a successful fusion of post-bop jazz with traditional Ladino and other Sephardic, aswell as klezmer and Turkish and other Middle Eastern elements. The results are often hauntingly beautiful and leave much of what generally calls itself contemporary World Jazz or World Fusion Jazz sounding like the shallow, artificial, inorganic constructs that they too often are. Atzmon’s powerful music is true world jazz at its best, in the best tradition of the genre’s great pioneers such as Yusef Lateef and Ahmed Abdul-Malik who practically invented the genre decades before it acquired its name. Of the eight tracks on this utterly compelling album, three are Atzmon originals, two traditional Ladino songs, and one each by Miles Davis and Wayne Shorter, and one traditional Turkish. Each has its own strengths, and none is weaker than the others, and such consistency is alas only too rare particularly on many contemporary jazz albums. Gilad Atzmon & The Orient House Ensemble is great music, with great charm, powerful emotions and great, haunting beauty. There is no flashy showiness for the sake of it here, instead, there is solid musicianship and great depth and passion. It is remarkably fresh and wonderfully refreshing. Ignore genre labels, just enjoy this fabulous music!
Exact Audio Copy V0.99 prebeta 5 from 4. May 2009
EAC extraction logfile from 6. January 2011, 9:03
Gilad Atzmon & The Orient House Ensemble / Gilad Atzmon & The Orient House Ensemble
Used drive : _NEC DVD_RW ND-3500AG Adapter: 0 ID: 0
Read mode : Secure
Utilize accurate stream : Yes
Defeat audio cache : Yes
Make use of C2 pointers : No
Read offset correction : 48
Overread into Lead-In and Lead-Out : No
Fill up missing offset samples with silence : Yes
Delete leading and trailing silent blocks : No
Null samples used in CRC calculations : Yes
Used interface : Native Win32 interface for Win NT & 2000
Used output format : User Defined Encoder
Selected bitrate : 768 kBit/s
Quality : High
Add ID3 tag : No
Command line compressor : C:Program FilesExact Audio CopyFLACFLAC.EXE
Additional command line options : -6 -V -T "ARTIST=%a" -T "TITLE=%t" -T "ALBUM=%g" -T "DATE=%y" -T "TRACKNUMBER=%n" -T "GENRE=%m" -T "COMMENT=%e" %s -o %d
TOC of the extracted CD
Track | Start | Length | Start sector | End sector
---------------------------------------------------------
1 | 0:00.00 | 6:56.63 | 0 | 31262
2 | 6:56.63 | 6:30.17 | 31263 | 60529
3 | 13:27.05 | 9:12.10 | 60530 | 101939
4 | 22:39.15 | 8:25.20 | 101940 | 139834
5 | 31:04.35 | 7:14.09 | 139835 | 172393
6 | 38:18.44 | 12:17.33 | 172394 | 227701
7 | 50:36.02 | 2:40.22 | 227702 | 239723
8 | 53:16.24 | 5:40.13 | 239724 | 265236
Range status and errors
Selected range
Filename J:eMusicRipGilad Atzmon & The Orient House Ensemble - Gilad Atzmon & The Orient House Ensemble.wav
Peak level 99.6 %
Range quality 99.9 %
Test CRC 800C30C3
Copy CRC 800C30C3
Copy OK
No errors occurred

AccurateRip summary

Track 1 cannot be verified as accurate (confidence 1) [BB70F231], AccurateRip returned [919FCF37]
Track 2 cannot be verified as accurate (confidence 1) [59927044], AccurateRip returned [C03937EA]
Track 3 cannot be verified as accurate (confidence 1) [1FFAD38A], AccurateRip returned [E12B6328]
Track 4 cannot be verified as accurate (confidence 1) [086F596C], AccurateRip returned [AA33C966]
Track 5 cannot be verified as accurate (confidence 1) [FD48D47F], AccurateRip returned [F27D984A]
Track 6 cannot be verified as accurate (confidence 1) [B181636B], AccurateRip returned [8CCB62C0]
Track 7 cannot be verified as accurate (confidence 1) [E81E3A04], AccurateRip returned [8A0C7D04]
Track 8 cannot be verified as accurate (confidence 1) [799F45AB], AccurateRip returned [5E6D8D0E]

No tracks could be verified as accurate
You may have a different pressing from the one(s) in the database
End of status report
DOWNLOAD Lossless
DOWNLOAD MP3:




Alternative download links

HotFile HotFile

Related MP3 FLAC to Gilad Atzmon The Orient House Ensemble - Gilad Atzmon The Orient House Ensemble (2000)
Feedback
All rights reserved.
WEBBG.com © 2000-2018