Shakatak - Drivin Hard (1981)
MP3 FLAC WMA APE HD

Shakatak - Drivin Hard (1981)

Artist: Shakatak
Title Of Album: Drivin' Hard
Year Of Release: 1981
Label: Polydor
Genre: Smooth Jazz
Quality: Flac(Image+Cue+Log)/mp3
Bitrate: Lossless/320kbps
Total Time: 47:08 min
Total Size: 263Mb/111Mb
Tracklist:
1 Livin' In The U.K.
2 Into The Night
3 Toot The Shoot
4 Lumiere
5 Late Night Flight
6 Waves
7 Steppin'
8 Covina
9 You Never Know
10 Brazilian Dawn
Exact Audio Copy V0.99 prebeta 4 from 23. January 2008
EAC extraction logfile from 5. March 2008, 7:56
Shakatak / Drivin' Hard
Used drive : PIONEER DVD-RW DVR-106D Adapter: 3 ID: 1
Read mode : Secure
Utilize accurate stream : Yes
Defeat audio cache : Yes
Make use of C2 pointers : No
Read offset correction : 48
Overread into Lead-In and Lead-Out : No
Fill up missing offset samples with silence : Yes
Delete leading and trailing silent blocks : No
Null samples used in CRC calculations : No
Used interface : Installed external ASPI interface
Used output format : Internal WAV Routines
Sample format : 44.100 Hz; 16 Bit; Stereo
TOC of the extracted CD
Track | Start | Length | Start sector | End sector
---------------------------------------------------------
1 | 0:00.00 | 5:57.40 | 0 | 26814
2 | 5:57.40 | 4:39.15 | 26815 | 47754
3 | 10:36.55 | 4:02.37 | 47755 | 65941
4 | 14:39.17 | 4:15.28 | 65942 | 85094
5 | 18:54.45 | 3:58.70 | 85095 | 103014
6 | 22:53.40 | 1:40.32 | 103015 | 110546
7 | 24:33.72 | 5:53.38 | 110547 | 137059
8 | 30:27.35 | 4:49.20 | 137060 | 158754
9 | 35:16.55 | 5:15.30 | 158755 | 182409
10 | 40:32.10 | 6:36.50 | 182410 | 212159
Range status and errors
Selected range
Filename I:My MusicShakatak - Drivin' HardShakatak - Drivin' Hard.wav
Peak level 100.0 %
Range quality 100.0 %
Test CRC ACC69C6D
Copy CRC ACC69C6D
Copy OK
No errors occurred

AccurateRip summary

Track 1 not present in database
Track 2 not present in database
Track 3 not present in database
Track 4 not present in database
Track 5 not present in database
Track 6 not present in database
Track 7 not present in database
Track 8 not present in database
Track 9 not present in database
Track 10 not present in database

None of the tracks are present in the AccurateRip database
End of status report
However, following this success the band felt it was time that they re-directed their efforts back to singles, and an album for release to the rest of the world. The result was Something Special, closely followed by the night club and chart hit "Mr Manic & Sister Cool" from their next LP, Manic and Cool. In the 1990s the band had great success in the U.S. when they had two albums that went to No 1 in the contemporary jazz charts and were also awarded the Japanese grammy for best international instrumental album six years running. Since 2000 the band has continued to record and tour the world.
In January 2010 the group's keyboard player Bill Sharpe was interviewed by Mike Howard on internet jazz funk radio station Vinyl Morpher Radio. Singer Jill Saward currently owns a property in Sardinia and travels between her home abroad and the UK on a regular basis. In 2009 Bassplayer George Anderson released his solo album 'Positivity'. The band are currently celebrating their 30 yr anniversary with concert appearances around the world.
Lossless Links
| |
MP3 Links
| |




Alternative download links

HOTFILE SHARINGMATRIX UPLOADED HOTFILE SHARINGMATRIX UPLOADED

Related MP3 FLAC to Shakatak - Drivin Hard (1981)
Feedback
All rights reserved.
WEBBG.com © 2000-2018