Beegie Adair - Dancing In The Dark: A Tribute To Fred Astaire (2008)
MP3 FLAC WMA APE HD

Beegie Adair - Dancing In The Dark: A Tribute To Fred Astaire (2008)

  • Genre: Music, Jazz, FLAC / APE
  • Formats: MP3 FLAC WMA HD APE
  • Album Size: 1803 mb.
  • Archive: ZIP RAR
Artist: Beegie Adair
Title Of Album: Dancing In The Dark: A Tribute To Fred Astaire
Year Of Release: 2008
Label: Green Hill
Genre: Bop
Quality: FLAC (tracks+.cue) + log
Bitrate: Lossless
Total Time: 45:09
Total Size: 271 Mb
Beegie Adair (born in Barren County, Kentucky in 1937) is a jazz pianist. She studied piano at Western Kentucky University. She moved to Nashville, Tennessee where she did graduate work at Peabody College. She later went on to form the Beegie Adair Trio.
Tracklist:
01. Cheek To Cheek (3:47)
02. The Way You LooK Tonight (3:21)
03. Dancing In The Dark (3:33)
04. Puttin' On The Ritz (3:22)
05. Change Partners (4:46)
06. They Can't Take That Away From Me (3:52)
07. By Myself (4:03)
08. Nice Work If You Can Get It (3:59)
09. Pick Yourself Up (3:01)
10. Let's Face The Music And Dance (3:52)
11. They All Laughed (3:23)
12. Isn't It A Lovely Day (To Be Caught In The Rain) (4:11)
Exact Audio Copy V0.99 prebeta 4 from 23. January 2008
EAC extraction logfile from 31. October 2010, 9:08
Beegie Adair / Dancing in the Dark: A Tribute to Fred Astaire
Used drive : TSSTcorpDVD+-RW TS-H653B Adapter: 1 ID: 0
Read mode : Secure
Utilize accurate stream : Yes
Defeat audio cache : Yes
Make use of C2 pointers : No
Read offset correction : 6
Overread into Lead-In and Lead-Out : No
Fill up missing offset samples with silence : Yes
Delete leading and trailing silent blocks : No
Null samples used in CRC calculations : Yes
Used interface : Native Win32 interface for Win NT & 2000
Gap handling : Appended to previous track
Used output format : User Defined Encoder
Selected bitrate : 192 kBit/s
Quality : High
Add ID3 tag : No
Command line compressor : C:Program FilesExact Audio CopyFlacflac.exe
Additional command line options : -8 -A tukey(0.25) -A gauss(0.1875) -b 4096 -V -T "artist=%a" -T "title=%t" -T "album=%g" -T "date=%y" -T "tracknumber=%n" -T "genre=%m" %s
TOC of the extracted CD
Track | Start | Length | Start sector | End sector
---------------------------------------------------------
1 | 0:00.00 | 3:46.57 | 0 | 17006
2 | 3:46.57 | 3:20.47 | 17007 | 32053
3 | 7:07.29 | 3:32.52 | 32054 | 48005
4 | 10:40.06 | 3:21.70 | 48006 | 63150
5 | 14:02.01 | 4:46.34 | 63151 | 84634
6 | 18:48.35 | 3:51.45 | 84635 | 102004
7 | 22:40.05 | 4:02.54 | 102005 | 120208
8 | 26:42.59 | 3:58.73 | 120209 | 138131
9 | 30:41.57 | 3:01.16 | 138132 | 151722
10 | 33:42.73 | 3:51.49 | 151723 | 169096
11 | 37:34.47 | 3:23.17 | 169097 | 184338
12 | 40:57.64 | 4:11.30 | 184339 | 203193
Track 1
Filename C:Beegie Adair - Dancing in the Dark - A Tribute to Fred Astaire FLAC1 - Cheek to Cheek.wav
Pre-gap length 0:00:02.00
Peak level 96.0 %
Track quality 100.0 %
Test CRC B574B935
Copy CRC B574B935
Track not present in AccurateRip database
Copy OK
Track 2
Filename C:Beegie Adair - Dancing in the Dark - A Tribute to Fred Astaire FLAC2 - The Way You Look Tonight.wav
Pre-gap length 0:00:02.86
Peak level 96.3 %
Track quality 100.0 %
Test CRC 98C7127D
Copy CRC 98C7127D
Track not present in AccurateRip database
Copy OK
Track 3
Filename C:Beegie Adair - Dancing in the Dark - A Tribute to Fred Astaire FLAC3 - Dancing in the Dark.wav
Pre-gap length 0:00:02.86
Peak level 94.9 %
Track quality 100.0 %
Test CRC E0133867
Copy CRC E0133867
Track not present in AccurateRip database
Copy OK
Track 4
Filename C:Beegie Adair - Dancing in the Dark - A Tribute to Fred Astaire FLAC4 - Puttin' on the Ritz.wav
Pre-gap length 0:00:02.86
Peak level 96.4 %
Track quality 100.0 %
Test CRC B7C117FC
Copy CRC B7C117FC
Track not present in AccurateRip database
Copy OK
Track 5
Filename C:Beegie Adair - Dancing in the Dark - A Tribute to Fred Astaire FLAC5 - Change Partners.wav
Pre-gap length 0:00:02.86
Peak level 94.8 %
Track quality 100.0 %
Test CRC 7229A95E
Copy CRC 7229A95E
Track not present in AccurateRip database
Copy OK
Track 6
Filename C:Beegie Adair - Dancing in the Dark - A Tribute to Fred Astaire FLAC6 - Can't Take That Away From Me.wav
Pre-gap length 0:00:02.86
Peak level 96.2 %
Track quality 100.0 %
Test CRC 19A24756
Copy CRC 19A24756
Track not present in AccurateRip database
Copy OK
Track 7
Filename C:Beegie Adair - Dancing in the Dark - A Tribute to Fred Astaire FLAC7 - By Myself.wav
Pre-gap length 0:00:03.00
Peak level 96.1 %
Track quality 99.9 %
Test CRC 1C6D750B
Copy CRC 1C6D750B
Track not present in AccurateRip database
Copy OK
Track 8
Filename C:Beegie Adair - Dancing in the Dark - A Tribute to Fred Astaire FLAC8 - Nice Work if You Can Get It.wav
Pre-gap length 0:00:03.00
Peak level 95.8 %
Track quality 100.0 %
Test CRC 62FFD2BD
Copy CRC 62FFD2BD
Track not present in AccurateRip database
Copy OK
Track 9
Filename C:Beegie Adair - Dancing in the Dark - A Tribute to Fred Astaire FLAC9 - Pick Yourself Up.wav
Pre-gap length 0:00:03.00
Peak level 95.9 %
Track quality 100.0 %
Test CRC 23FE0010
Copy CRC 23FE0010
Track not present in AccurateRip database
Copy OK
Track 10
Filename C:Beegie Adair - Dancing in the Dark - A Tribute to Fred Astaire FLAC10 - Let's Face the Music and Dance.wav
Pre-gap length 0:00:03.00
Peak level 94.7 %
Track quality 100.0 %
Test CRC B9967E51
Copy CRC B9967E51
Track not present in AccurateRip database
Copy OK
Track 11
Filename C:Beegie Adair - Dancing in the Dark - A Tribute to Fred Astaire FLAC11 - They All Laughed.wav
Pre-gap length 0:00:02.66
Peak level 95.4 %
Track quality 99.9 %
Test CRC 48F0D0AF
Copy CRC 48F0D0AF
Track not present in AccurateRip database
Copy OK
Track 12
Filename C:Beegie Adair - Dancing in the Dark - A Tribute to Fred Astaire FLAC12 - Isn't It a Lovely Day (To Be Caught in the Rain).wav
Pre-gap length 0:00:02.86
Peak level 95.3 %
Track quality 99.9 %
Test CRC 9D1DC4CB
Copy CRC 9D1DC4CB
Track not present in AccurateRip database
Copy OK
None of the tracks are present in the AccurateRip database
No errors occurred
End of status report
FileSonic
Turbobit



Alternative download links

DOWNLOAD

Related MP3 FLAC to Beegie Adair - Dancing In The Dark: A Tribute To Fred Astaire (2008)
Feedback
All rights reserved.
WEBBG.com © 2000-2018