Jamiroquai - A funk odyssey (2001)
MP3 FLAC WMA APE HD

Jamiroquai - A funk odyssey (2001)

Artist: Jamiroquai
Title Of Album: A funk odyssey
Year Of Release: September 11, 2001
Label: Sony
Genre: Disco, Funk, Funktronica, Alternative Dance
Quality: APE(Image+Cue+Log+Covers)/mp3
Bitrate: Lossless/320kbps
Total Time: 48:18 min
Total Size: 303Mb/117Mb
WebSite:
Tracklist:
1.Feel So Good
2.Little L
3.You Give Me Something
4.Corner Of The Earth
5.Love Foolosophy
6.Stop Don`t Panic
7.Black Crow
8.Main Vein
9.Twenty Zero One
10.Picture Of My Life
Exact Audio Copy V0.99 prebeta 3 from 28. July 2007
Отчёт EAC об извлечении, выполненном 23. июля 2010, 11:38
Jamiroquai / A funk odyssey
Дисковод: Optiarc DVD RW AD-7560A Adapter: 0 ID: 0
Режим чтения : Достоверность
Использование точного потока : Да
Отключение кэша аудио : Да
Использование указателей C2 : Нет
Коррекция смещения при чтении : 6
Способность читать области Lead-in и Lead-out : Нет
Заполнение пропущенных сэмплов тишиной : Да
Удаление блоков с тишиной в начале и конце : Нет
При вычислениях CRC использовались нулевые сэмплы : Да
Интерфейс : Встроенный Win32-интерфейс для Win NT/2000
Выходной формат : Внутренние WAV-операции
Формат сэмплов : 44.100 Гц; 16 бит; стерео
TOC извлечённого CD
Трек | Старт | Длительность | Начальный сектор | Конечный сектор
---------------------------------------------------------------------
1 | 0:00.00 | 5:20.62 | 0 | 24061
2 | 5:20.62 | 4:55.25 | 24062 | 46211
3 | 10:16.12 | 3:23.28 | 46212 | 61464
4 | 13:39.40 | 5:40.00 | 61465 | 86964
5 | 19:19.40 | 3:45.60 | 86965 | 103899
6 | 23:05.25 | 4:34.12 | 103900 | 124461
7 | 27:39.37 | 4:02.18 | 124462 | 142629
8 | 31:41.55 | 5:05.12 | 142630 | 165516
9 | 36:46.67 | 5:15.45 | 165517 | 189186
10 | 42:02.37 | 6:15.70 | 189187 | 217381
Характеристики диапазона извлечения и сообщения об ошибках
Выбранный диапазон
Имя файла C:UsersАлександрDesktopJamiJamiroquai - A funk odyssey.wav
Пиковый уровень 98.8 %
Качество диапазона 99.9 %
CRC копии 02B9525B
Копирование... OK
Ошибок не произошло

AccurateRip: сводка

Трек 1 точность не определена (достоверность 177) [4CD1FEDB], AccurateRip вернул [8C6A3954]
Трек 2 точность не определена (достоверность 183) [A43BD350], AccurateRip вернул [92B0B657]
Трек 3 точность не определена (достоверность 180) [ED9310E2], AccurateRip вернул [F57C01C2]
Трек 4 точность не определена (достоверность 177) [926032E3], AccurateRip вернул [CE562E81]
Трек 5 точность не определена (достоверность 179) [944B551B], AccurateRip вернул [A093420B]
Трек 6 точность не определена (достоверность 176) [8511DECE], AccurateRip вернул [CD7B8C8E]
Трек 7 точность не определена (достоверность 177) [C4198DFE], AccurateRip вернул [62284BC2]
Трек 8 точность не определена (достоверность 177) [1358003A], AccurateRip вернул [5FCF6244]
Трек 9 точность не определена (достоверность 177) [EB834F10], AccurateRip вернул [EA887744]
Трек 10 точность не определена (достоверность 174) [B64D776C], AccurateRip вернул [FCE870DE]

Ни один трек не прошёл проверки на точность
В вашей базе может быть иной вариант штамповки диска
Конец отчёта
Combining features of disco, funk and electronica, the release of the album represented the peak of international commercial success for Jamiroquai, and in the ensuing world tour the group became a household name in many countries. The album marks also a departure from the band's more traditional acid jazz sound. A Funk Odyssey was the first Jamiroquai album not to feature the famous "Buffalo Man" image on the cover, though the pattern of lasers behind Jason Kay were set up along an outline of the Buffalo Man, who also appears in the booklet several times. The album, although deeply into a disco/funk vibe, is also very focused on an electronica sound, evident especially in "Twenty Zero One" and "Stop Don't Panic".
Lossless Links
HOTFILE.com:
SHARINGMATRIX.com:
UPLOADED.to:
MP3 Links
| |




Alternative download links

hotfile.com part1 hotfile.com part2 sharingmatrix.com part1 sharingmatrix.com part2 uploaded.to part1 uploaded.to part2 HOTFILE SHARINGMATRIX UPLOADED

Related MP3 FLAC to Jamiroquai - A funk odyssey (2001)
Feedback
All rights reserved.
WEBBG.com © 2000-2018