Roberto Ciotti - Troubles And Dreams (2010)
MP3 FLAC WMA APE HD

Roberto Ciotti - Troubles And Dreams (2010)

  • Genre: Music, Blues, FLAC / APE
  • Formats: MP3 FLAC WMA HD APE
  • Album Size: 1631 mb.
  • Archive: ZIP RAR
Artist: Roberto Ciotti
Title Of Album: Troubles And Dreams
Year Of Release: 2010
Label: Pid
Genre: Blues
Quality: APE (image+.cue) + log
Bitrate: Lossless
Total Time: 45:38
Total Size: 230 Mb
Tracklist:
01. Blues Writer [0:03:17.41]
02. Black Angel [0:03:46.61]
03. Stanotte Roma [0:03:29.88]
04. Times I Live [0:03:26.16]
05. Tender Touch [0:04:25.57]
06. Hot Summer [0:03:30.42]
07. I'm Fool And I'm Free [0:03:32.20]
08. Guilty To Be Lonely [0:03:24.81]
09. In My Pocket [0:04:00.68]
10. Out Of Sight [0:03:29.41]
11. Rocking Prophecy [0:03:03.69]
12. No Justice [0:02:58.38]
13. Mama [0:03:12.94]
Exact Audio Copy V0.99 prebeta 4 from 23. January 2008
Отчёт EAC об извлечении, выполненном 26. июня 2011, 14:07
Roberto Ciotti / Troubles And Dreams
Дисковод: Optiarc DVD RW AD-7173A Adapter: 0 ID: 1
Режим чтения : Достоверность
Использование точного потока : Да
Отключение кэша аудио : Да
Использование указателей C2 : Нет
Коррекция смещения при чтении : 48
Способность читать области Lead-in и Lead-out : Нет
Заполнение пропущенных сэмплов тишиной : Да
Удаление блоков с тишиной в начале и конце : Нет
При вычислениях CRC использовались нулевые сэмплы : Да
Интерфейс : Встроенный Win32-интерфейс для Win NT/2000
Выходной формат : Внутренние WAV-операции
Формат сэмплов : 44.100 Гц; 16 бит; стерео
TOC извлечённого CD
Трек | Старт | Длительность | Начальный сектор | Конечный сектор
---------------------------------------------------------------------
1 | 0:00.00 | 3:17.31 | 0 | 14805
2 | 3:17.31 | 3:46.46 | 14806 | 31801
3 | 7:04.02 | 3:29.66 | 31802 | 47542
4 | 10:33.68 | 3:26.12 | 47543 | 63004
5 | 14:00.05 | 4:25.43 | 63005 | 82922
6 | 18:25.48 | 3:30.32 | 82923 | 98704
7 | 21:56.05 | 3:32.15 | 98705 | 114619
8 | 25:28.20 | 3:24.61 | 114620 | 129980
9 | 28:53.06 | 4:00.51 | 129981 | 148031
10 | 32:53.57 | 3:29.31 | 148032 | 163737
11 | 36:23.13 | 3:03.52 | 163738 | 177514
12 | 39:26.65 | 2:58.29 | 177515 | 190893
13 | 42:25.19 | 3:12.71 | 190894 | 205364
Характеристики диапазона извлечения и сообщения об ошибках
Выбранный диапазон
Имя файла D:КОЛЛЕКЦИЯ 11Новая папка Roberto Ciotti - Troubles And Dreams.wav
Пиковый уровень 96.7 %
Качество диапазона 99.9 %
CRC теста 1E76EE6D
CRC копии 1E76EE6D
Копирование... OK
Ошибок не произошло
AccurateRip: сводка
Трек 1 нет в базе данных
Трек 2 нет в базе данных
Трек 3 нет в базе данных
Трек 4 нет в базе данных
Трек 5 нет в базе данных
Трек 6 нет в базе данных
Трек 7 нет в базе данных
Трек 8 нет в базе данных
Трек 9 нет в базе данных
Трек 10 нет в базе данных
Трек 11 нет в базе данных
Трек 12 нет в базе данных
Трек 13 нет в базе данных
Ни одного трека нет в базе AccurateRip
Конец отчёта
FileSonic
Wupload



Alternative download links

DOWNLOAD

Related MP3 FLAC to Roberto Ciotti - Troubles And Dreams (2010)
Feedback
All rights reserved.
WEBBG.com © 2000-2018