Billie Myers - Vertigo (2000)
MP3 FLAC WMA APE HD

Billie Myers - Vertigo (2000)

Artist: Billie Myers
Title Of Album: Vertigo
Year Of Release: 2000
Label: Universal Records
Genre: Pop Rock
Quality: FLAC (tracks+.cue) + log
Bitrate: Lossless
Total Time: 55:22
Total Size: 384 Mb
Billie Myers (born 14 June 1971, Coventry, West Midlands) is an English rock singer-songwriter. She is probably best known for her 1998 transatlantic hit, "Kiss the Rain".
Tracklist:
01. Am I Here Yet? (Return To Sender)
02. Should I Call You Jesus?
03. Vertigo
04. Without My Consent
05. A Room Full Of View
06. Flexible
07. Where Romeo Never Dies
08. Never Let Them See You Cry
09. "Roll Over Beethoven"
10. Afraid Of Spiders
11. Bitter Fruit (Dead Weight)
Exact Audio Copy V1.0 beta 2 from 29. April 2011
Отчёт EAC об извлечении, выполненном 28. августа 2011, 15:16
Billie Myers / Vertigo
Дисковод: Optiarc DVD RW AD-7170A Adapter: 0 ID: 0
Режим чтения : Достоверность
Использование точного потока : Да
Отключение кэша аудио : Да
Использование указателей C2 : Нет
Коррекция смещения при чтении : 48
Способность читать области Lead-in и Lead-out : Нет
Заполнение пропущенных сэмплов тишиной : Да
Удаление блоков с тишиной в начале и конце : Нет
При вычислениях CRC использовались нулевые сэмплы : Да
Интерфейс : Встроенный Win32-интерфейс для Win NT/2000
Обработка зазоров : Добавлено к предыдущему треку
Выходной формат : Пользовательский кодировщик
Выбранный битрейт : 768 kBit/s
Качество : Высокий
Добавление ID3-тега : Нет
Утилита сжатия : C:Program Files (x86)Exact Audio CopyFLACFLAC.EXE
Дополнительные параметры : -V -8 -T "Genre=%genre%" -T "Artist=%artist%" -T "Title=%title%" -T "Album=%albumtitle%" -T "Date=%year%" -T "Tracknumber=%tracknr%" -T "Comment=%comment%" %source%
TOC извлечённого CD
Трек | Старт | Длительность | Начальный сектор | Конечный сектор
---------------------------------------------------------------------
1 | 0:00.00 | 4:47.52 | 0 | 21576
2 | 4:47.52 | 5:10.55 | 21577 | 44881
3 | 9:58.32 | 5:40.53 | 44882 | 70434
4 | 15:39.10 | 3:39.20 | 70435 | 86879
5 | 19:18.30 | 6:39.37 | 86880 | 116841
6 | 25:57.67 | 4:31.10 | 116842 | 137176
7 | 30:29.02 | 3:57.43 | 137177 | 154994
8 | 34:26.45 | 5:35.40 | 154995 | 180159
9 | 40:02.10 | 4:56.35 | 180160 | 202394
10 | 44:58.45 | 4:39.32 | 202395 | 223351
11 | 49:38.02 | 5:44.28 | 223352 | 249179
Трек 1
Имя файла M:LosslessBillie Myers - Vertigo1 Am I Here Yet (Return to Sender).wav
Длина предзазора 0:00:02.00
Пиковый уровень 99.8 %
Скорость извлечения 2.3 X
Качество трека 100.0 %
CRC теста 21074813
CRC копии 21074813
Копирование... OK
Трек 2
Имя файла M:LosslessBillie Myers - Vertigo2 Should I Call You Jesus.wav
Длина предзазора 0:00:02.35
Пиковый уровень 92.2 %
Скорость извлечения 4.3 X
Качество трека 99.9 %
CRC теста 8095947A
CRC копии 8095947A
Копирование... OK
Трек 3
Имя файла M:LosslessBillie Myers - Vertigo3 Vertigo.wav
Пиковый уровень 92.3 %
Скорость извлечения 5.6 X
Качество трека 100.0 %
CRC теста 23DB878A
CRC копии 23DB878A
Копирование... OK
Трек 4
Имя файла M:LosslessBillie Myers - Vertigo4 Without My Consent.wav
Пиковый уровень 99.6 %
Скорость извлечения 5.8 X
Качество трека 100.0 %
CRC теста C7780154
CRC копии C7780154
Копирование... OK
Трек 5
Имя файла M:LosslessBillie Myers - Vertigo5 A Room Full of View.wav
Пиковый уровень 99.9 %
Скорость извлечения 6.6 X
Качество трека 100.0 %
CRC теста 93E858FA
CRC копии 93E858FA
Копирование... OK
Трек 6
Имя файла M:LosslessBillie Myers - Vertigo6 Flexible.wav
Длина предзазора 0:00:01.37
Пиковый уровень 99.8 %
Скорость извлечения 6.8 X
Качество трека 100.0 %
CRC теста A10AD564
CRC копии A10AD564
Копирование... OK
Трек 7
Имя файла M:LosslessBillie Myers - Vertigo7 Where Romeo Never Dies.wav
Пиковый уровень 99.0 %
Скорость извлечения 6.9 X
Качество трека 100.0 %
CRC теста FFDE1F89
CRC копии FFDE1F89
Копирование... OK
Трек 8
Имя файла M:LosslessBillie Myers - Vertigo8 Never Let Them See You Cry.wav
Пиковый уровень 97.1 %
Скорость извлечения 7.5 X
Качество трека 100.0 %
CRC теста 5ACC5A25
CRC копии 5ACC5A25
Копирование... OK
Трек 9
Имя файла M:LosslessBillie Myers - Vertigo9 ''Roll Over Beethoven''.wav
Пиковый уровень 95.7 %
Скорость извлечения 6.5 X
Качество трека 99.9 %
CRC теста E84B3963
CRC копии E84B3963
Копирование... OK
Трек 10
Имя файла M:LosslessBillie Myers - Vertigo10 Afraid of Spiders.wav
Пиковый уровень 97.9 %
Скорость извлечения 7.2 X
Качество трека 100.0 %
CRC теста 29D54EB2
CRC копии 29D54EB2
Копирование... OK
Трек 11
Имя файла M:LosslessBillie Myers - Vertigo11 Bitter Fruit (Dead Weight).wav
Пиковый уровень 96.6 %
Скорость извлечения 8.5 X
Качество трека 100.0 %
CRC теста 745B7D16
CRC копии 745B7D16
Копирование... OK
Ошибок не произошло
Конец отчёта
FileSonic
Wupload



Alternative download links

DOWNLOAD

Related MP3 FLAC to Billie Myers - Vertigo (2000)
Feedback
All rights reserved.
WEBBG.com © 2000-2018