Mike Orlando - Sonic Stomp II (2010)
MP3 FLAC WMA APE HD

Mike Orlando - Sonic Stomp II (2010)

Artist: Mike Orlando
Title Of Album: Sonic Stomp II
Year Of Release: 2010
Label: USA
Genre: Instrumental Rock
Quality: APE (image+.cue) + log
Bitrate: Lossless
Total Time: 01:19:30
Total Size: 591 Mb
Mike Orlando is an American guitarist. He was top the ten finalist for Guitar Player magazine’s Guitar Superstar of the Year in 2008 and has worked with musicians like Zakk Wylde and Bumblefoot. His first solo album, Sonic Stomp, was released in 2006 and the follow-up, Sonic Stomp II, was released in 2010. He is currently working with Russell Allen and Mike Portnoy on a project called Adrenaline Mob.
Tracklist:
01. Throwdown
02. Dig It
03. Burn
04. Cirque De Insanity
05. Shaga Duga
06. A Wicked Bizzaa Guitaa (feat. Gary Hoey & Joe Stump)
07. A Vision of You (feat. Mike Pinella of Symphony X)
08. Tapped Out
09. My Black Cat Moaned
10. A Sitting Ovation
11. Full Speed X (feat. Michael Romeo of Symphony X)
12. The Game Show
13. Sonically Stomped (feat. Shane Gibson of Korn)
14. Circles In Squares
Exact Audio Copy V0.99 prebeta 4 from 23. January 2008
Отчёт EAC об извлечении, выполненном 22. декабря 2010, 1:11
Mike Orlando / Sonic Stomp II
Дисковод: HL-DT-STDVD-RAM GH22NS30 Adapter: 0 ID: 0
Режим чтения : Достоверность
Использование точного потока : Да
Отключение кэша аудио : Да
Использование указателей C2 : Нет
Коррекция смещения при чтении : 102
Способность читать области Lead-in и Lead-out : Нет
Заполнение пропущенных сэмплов тишиной : Да
Удаление блоков с тишиной в начале и конце : Нет
При вычислениях CRC использовались нулевые сэмплы : Да
Интерфейс : Встроенный Win32-интерфейс для Win NT/2000
Выходной формат : Внутренние WAV-операции
Формат сэмплов : 44.100 Гц; 16 бит; стерео
TOC извлечённого CD
Трек | Старт | Длительность | Начальный сектор | Конечный сектор
---------------------------------------------------------------------
1 | 0:00.00 | 4:47.29 | 0 | 21553
2 | 4:47.29 | 5:26.39 | 21554 | 46042
3 | 10:13.68 | 4:17.03 | 46043 | 65320
4 | 14:30.71 | 4:11.70 | 65321 | 84215
5 | 18:42.66 | 5:05.10 | 84216 | 107100
6 | 23:48.01 | 7:50.33 | 107101 | 142383
7 | 31:38.34 | 7:38.09 | 142384 | 176742
8 | 39:16.43 | 5:13.68 | 176743 | 200285
9 | 44:30.36 | 7:05.41 | 200286 | 232201
10 | 51:36.02 | 3:55.36 | 232202 | 249862
11 | 55:31.38 | 5:16.26 | 249863 | 273588
12 | 60:47.64 | 4:31.41 | 273589 | 293954
13 | 65:19.30 | 5:25.38 | 293955 | 318367
14 | 70:44.68 | 8:45.32 | 318368 | 357774
Характеристики диапазона извлечения и сообщения об ошибках
Выбранный диапазон
Имя файла E:MaximMusicLosslessРаздачиMike OrlandoMike Orlando - Sonic Stomp II.wav
Пиковый уровень 96.7 %
Качество диапазона 100.0 %
CRC копии 33D5C551
Копирование... OK
Ошибок не произошло
AccurateRip: сводка
Трек 1 нет в базе данных
Трек 2 нет в базе данных
Трек 3 нет в базе данных
Трек 4 нет в базе данных
Трек 5 нет в базе данных
Трек 6 нет в базе данных
Трек 7 нет в базе данных
Трек 8 нет в базе данных
Трек 9 нет в базе данных
Трек 10 нет в базе данных
Трек 11 нет в базе данных
Трек 12 нет в базе данных
Трек 13 нет в базе данных
Трек 14 нет в базе данных
Ни одного трека нет в базе AccurateRip
Конец отчёта
FileSonic
Wupload



Alternative download links

DOWNLOAD

Related MP3 FLAC to Mike Orlando - Sonic Stomp II (2010)
Feedback
All rights reserved.
WEBBG.com © 2000-2018