Jeff Bridges - Jeff Bridges (2011)
MP3 FLAC WMA APE HD

Jeff Bridges - Jeff Bridges (2011)

Artist: Jeff Bridges
Title Of Album: Jeff Bridges
Year Of Release: 2011
Label: Blue Note
Genre: Country, Folk-Rock
Quality: FLAC (tracks+.cue) + log
Bitrate: Lossless
Total Time: 40:05
Total Size: 218 Mb
Album by famous artist Jeff Bridges
Tracklist:
01. What A Little bit Of Love Can Do (3:38)
02. Falling Short (3:19)
03. Everything But Love (4:26)
04. Tumbling Vine (2:29)
05. Nothing Yet (4:28)
06. Blue Car (4:24)
07. Maybe I Missed The Point (3:31)
08. Slow Boat (6:01)
09. Either Way (4:53)
10. The Quest (2:56)
Exact Audio Copy V1.0 beta 2 from 29. April 2011
EAC extraction logfile from 13. July 2011, 15:57
Jeff Bridges / Jeff Bridges
Used drive : ASUS DRW-24B1ST a Adapter: 1 ID: 0
Read mode : Secure
Utilize accurate stream : Yes
Defeat audio cache : Yes
Make use of C2 pointers : No
Read offset correction : 6
Overread into Lead-In and Lead-Out : No
Fill up missing offset samples with silence : Yes
Delete leading and trailing silent blocks : No
Null samples used in CRC calculations : Yes
Used interface : Native Win32 interface for Win NT & 2000
Gap handling : Appended to previous track
Used output format : User Defined Encoder
Selected bitrate : 1024 kBit/s
Quality : High
Add ID3 tag : No
Command line compressor : C:Program Files (x86)Exact Audio CopyFlacflac.exe
Additional command line options : -8 -V -T "ARTIST=%artist%" -T "TITLE=%title%" -T "ALBUM=%albumtitle%" -T "DATE=%year%" -
T "TRACKNUMBER=%tracknr%" -T "GENRE=%genre%" -T "PERFORMER=%albuminterpret%" -T "COMPOSER=%composer%" %haslyrics%--tag-from-file=LYRICS
TOC of the extracted CD
Track | Start | Length | Start sector | End sector
---------------------------------------------------------
1 | 0:00.00 | 3:38.70 | 0 | 16419
2 | 3:38.70 | 3:19.70 | 16420 | 31414
3 | 6:58.65 | 4:26.39 | 31415 | 51403
4 | 11:25.29 | 2:29.69 | 51404 | 62647
5 | 13:55.23 | 4:28.37 | 62648 | 82784
6 | 18:23.60 | 4:24.06 | 82785 | 102590
7 | 22:47.66 | 3:31.61 | 102591 | 118476
8 | 26:19.52 | 6:01.11 | 118477 | 145562
9 | 32:20.63 | 4:53.66 | 145563 | 167603
10 | 37:14.54 | 2:56.39 | 167604 | 180842
Track 1
Filename C:UsersrobDesktopJeff Bridges - Jeff Bridges - 2011 [Flac]1 - What A Little bit Of Love Can Do.wav
Pre-gap length 0:00:02.00
Peak level 88.2 %
Extraction speed 3.8 X
Track quality 100.0 %
Test CRC 38816568
Copy CRC 38816568
Track not present in AccurateRip database
Copy OK
Track 2
Filename C:UsersrobDesktopJeff Bridges - Jeff Bridges - 2011 [Flac]2 - Falling Short.wav
Peak level 88.1 %
Extraction speed 4.1 X
Track quality 100.0 %
Test CRC 5E0817FD
Copy CRC 5E0817FD
Track not present in AccurateRip database
Copy OK
Track 3
Filename C:UsersrobDesktopJeff Bridges - Jeff Bridges - 2011 [Flac]3 - Everything But Love.wav
Peak level 88.1 %
Extraction speed 4.6 X
Track quality 100.0 %
Test CRC 1D89FF3A
Copy CRC 1D89FF3A
Track not present in AccurateRip database
Copy OK
Track 4
Filename C:UsersrobDesktopJeff Bridges - Jeff Bridges - 2011 [Flac]4 - Tumbling Vine.wav
Peak level 88.1 %
Extraction speed 4.4 X
Track quality 100.0 %
Test CRC 489420D2
Copy CRC 489420D2
Track not present in AccurateRip database
Copy OK
Track 5
Filename C:UsersrobDesktopJeff Bridges - Jeff Bridges - 2011 [Flac]5 - Nothing Yet.wav
Peak level 93.3 %
Extraction speed 5.1 X
Track quality 100.0 %
Test CRC 23C5DD40
Copy CRC 23C5DD40
Track not present in AccurateRip database
Copy OK
Track 6
Filename C:UsersrobDesktopJeff Bridges - Jeff Bridges - 2011 [Flac]6 - Blue Car.wav
Peak level 94.6 %
Extraction speed 5.4 X
Track quality 100.0 %
Test CRC 8A29274F
Copy CRC 8A29274F
Track not present in AccurateRip database
Copy OK
Track 7
Filename C:UsersrobDesktopJeff Bridges - Jeff Bridges - 2011 [Flac]7 - Maybe I Missed The Point.wav
Peak level 88.1 %
Extraction speed 4.6 X
Track quality 99.9 %
Test CRC 93AC493D
Copy CRC 93AC493D
Track not present in AccurateRip database
Copy OK
Track 8
Filename C:UsersrobDesktopJeff Bridges - Jeff Bridges - 2011 [Flac]8 - Slow Boat.wav
Peak level 96.6 %
Extraction speed 6.2 X
Track quality 100.0 %
Test CRC E48DACD0
Copy CRC E48DACD0
Track not present in AccurateRip database
Copy OK
Track 9
Filename C:UsersrobDesktopJeff Bridges - Jeff Bridges - 2011 [Flac]9 - Either Way.wav
Peak level 96.5 %
Extraction speed 6.4 X
Track quality 100.0 %
Test CRC 1E2C4926
Copy CRC 1E2C4926
Track not present in AccurateRip database
Copy OK
Track 10
Filename C:UsersrobDesktopJeff Bridges - Jeff Bridges - 2011 [Flac]10 - The Quest.wav
Peak level 88.1 %
Extraction speed 6.1 X
Track quality 100.0 %
Test CRC CBED0660
Copy CRC CBED0660
Track not present in AccurateRip database
Copy OK
None of the tracks are present in the AccurateRip database
No errors occurred
End of status report
FileSonic
Wupload



Alternative download links

DOWNLOAD

Related MP3 FLAC to Jeff Bridges - Jeff Bridges (2011)
Feedback
All rights reserved.
WEBBG.com © 2000-2018