Mike Goudreau Jazz Band - Look For The Sunshine (2010)
MP3 FLAC WMA APE HD

Mike Goudreau Jazz Band - Look For The Sunshine (2010)

Artist: Mike Goudreau Jazz Band
Title Of Album: Look For The Sunshine
Year Of Release: 2010
Label: PMG
Genre: Jazzy-Blues, Swing
Quality: FLAC (image+.cue) + log
Bitrate: Lossless
Total Time: 69:34
Total Size: 484 Mb
Whether it's a Sinatra-style crooner, groovy instrumental, dreamy bossa-nova, romantic ballad, New Orleans-style Dixieland or a finger snappin' blues, everyone from the most particular connaisseur to the jazz newbie will be enchanted with this eclectic mix of jazz.
Tracklist:
01. Miss Wonderful (3:30)
02. Since We've Met (3:54)
03. Easy To Love (3:30)
04. Moonlight In Vermont (3:50)
05. Mambo Inn (4:51)
06. Look For the Sunshine (3:57)
07. Meet You In My Dreams (4:16)
08. They Can't Take That Away From Me (4:00)
09. Brazil (4:39)
10. Why Did You Treat Me So Bad ? (4:17)
11. Blueberry Pie (3:36)
12. Besame Mucho (4:56)
13. Happy Go Lucky Blues (3:47)
14. Let's Take A Chance (3:42)
15. What Will Be Will Be (4:15)
16. La Gentille Fille (3:29)
17. Bluesin' & Cruisin' (4:54)
Exact Audio Copy V0.99 prebeta 4 from 23. January 2008
Отчёт EAC об извлечении, выполненном 27. марта 2011, 19:29
Mike Goudreau Jazz Band / Look For The Sunshine
Дисковод: PLEXTOR DVDR PX-880SA Adapter: 1 ID: 1
Режим чтения : Достоверность
Использование точного потока : Да
Отключение кэша аудио : Да
Использование указателей C2 : Нет
Коррекция смещения при чтении : 6
Способность читать области Lead-in и Lead-out : Нет
Заполнение пропущенных сэмплов тишиной : Да
Удаление блоков с тишиной в начале и конце : Нет
При вычислениях CRC использовались нулевые сэмплы : Да
Интерфейс : Встроенный Win32-интерфейс для Win NT/2000
Выходной формат : Пользовательский кодировщик
Выбранный битрейт : 1024 kBit/s
Качество : Высокий
Добавление ID3-тэга : Нет
Утилита сжатия : C:Program FilesExact Audio CopyFLACFLAC.EXE
Дополнительные параметры : -6 -V -T "ARTIST=%a" -T "TITLE=%t" -T "ALBUM=%g" -T "DATE=%y" -T "TRACKNUMBER=%n" -T "GENRE=%m" -T "COMMENT=%e" %s -o %d
TOC извлечённого CD
Трек | Старт | Длительность | Начальный сектор | Конечный сектор
---------------------------------------------------------------------
1 | 0:00.00 | 3:30.53 | 0 | 15802
2 | 3:30.53 | 3:54.74 | 15803 | 33426
3 | 7:25.52 | 3:30.50 | 33427 | 49226
4 | 10:56.27 | 3:50.26 | 49227 | 66502
5 | 14:46.53 | 4:51.42 | 66503 | 88369
6 | 19:38.20 | 3:57.49 | 88370 | 106193
7 | 23:35.69 | 4:16.01 | 106194 | 125394
8 | 27:51.70 | 4:00.43 | 125395 | 143437
9 | 31:52.38 | 4:39.61 | 143438 | 164423
10 | 36:32.24 | 4:17.61 | 164424 | 183759
11 | 40:50.10 | 3:36.62 | 183760 | 200021
12 | 44:26.72 | 4:56.74 | 200022 | 222295
13 | 49:23.71 | 3:47.60 | 222296 | 239380
14 | 53:11.56 | 3:42.15 | 239381 | 256045
15 | 56:53.71 | 4:15.48 | 256046 | 275218
16 | 61:09.44 | 3:29.69 | 275219 | 290962
17 | 64:39.38 | 4:54.63 | 290963 | 313075
Характеристики диапазона извлечения и сообщения об ошибках
Выбранный диапазон
Имя файла J:BitCometMike Goudreau Jazz Band-Look For The Sunshine(flac)Mike Goudreau Jazz Band - Look For The Sunshine.wav
Пиковый уровень 98.8 %
Качество диапазона 100.0 %
CRC теста A62EA42E
CRC копии A62EA42E
Копирование... OK
Ошибок не произошло
AccurateRip: сводка
Трек 1 точное извлечение (доверие 1) [DDA68D1A]
Трек 2 точное извлечение (доверие 1) [223B0ED7]
Трек 3 точное извлечение (доверие 1) [1A53C87D]
Трек 4 точное извлечение (доверие 1) [6F21D7B4]
Трек 5 точное извлечение (доверие 1) [ABE8E54E]
Трек 6 точное извлечение (доверие 1) [5C351E49]
Трек 7 точное извлечение (доверие 1) [F3474371]
Трек 8 точное извлечение (доверие 1) [D3DCFEF2]
Трек 9 точное извлечение (доверие 1) [5977EFB1]
Трек 10 точное извлечение (доверие 1) [3ACEE65E]
Трек 11 точное извлечение (доверие 1) [2580E34D]
Трек 12 точное извлечение (доверие 1) [EFB5C680]
Трек 13 точное извлечение (доверие 1) [FD3D4602]
Трек 14 точное извлечение (доверие 1) [2B55BE5B]
Трек 15 точное извлечение (доверие 1) [261DBF61]
Трек 16 точное извлечение (доверие 1) [994E69B2]
Трек 17 точное извлечение (доверие 1) [59204093]
Все треки извлечены точно
Конец отчёта
FileSonic
Turbobit



Alternative download links

DOWNLOAD

Related MP3 FLAC to Mike Goudreau Jazz Band - Look For The Sunshine (2010)
Feedback
All rights reserved.
WEBBG.com © 2000-2018