Jon Lord - Durham Concerto(2007)
MP3 FLAC WMA APE HD

Jon Lord - Durham Concerto(2007)

Artist: Jon Lord
Title Of Album: Durham Concerto
Year Of Release: 2007
Label: AVIE Records
Genre: Classical
Quality: Flac(Image+Cue+Log+Scans)/mp3
Bitrate: Lossless/320kbps
Total Time: 56:27min
Total Size: 313Mb/200Mb
WebSite:
Tracklist
01. Part1: Morning - The Cathedral at Dawn [0:11:31.00]
02. Part1: Morning - Durham Awakes [0:08:28.46]
03. Part2: Afternoon - The Road from Lindisfarne [0:07:18.67]
04. Part2: Afternoon - From Prebends Bridge [0:08:31.42]
05. Part3: Evening - Rags & Galas [0:08:25.19]
06. Part3: Evening - Durham Nocturne [0:12:11.64]
Fabulous orchestral music by a member of English rock band Deep Purple. "A beautifully packaged, delightful musical souvenir of Durham University's 175th anniversary in 2007 ... sensitive and glowing with much accomplished and thoughtful work for the solo instruments."
Exact Audio Copy V0.99 prebeta 4 from 23. January 2008
EAC extraction logfile from 3. May 2008, 18:52
Jon Lord / Durham Concerto
Used drive : TSSTcorpCD/DVDW SH-S182M Adapter: 4 ID: 0
Read mode : Secure
Utilize accurate stream : Yes
Defeat audio cache : Yes
Make use of C2 pointers : No
Read offset correction : 6
Overread into Lead-In and Lead-Out : No
Fill up missing offset samples with silence : Yes
Delete leading and trailing silent blocks : No
Null samples used in CRC calculations : Yes
Used interface : Native Win32 interface for Win NT & 2000
Used output format : Internal WAV Routines
Sample format : 44.100 Hz; 16 Bit; Stereo
TOC of the extracted CD
Track | Start | Length | Start sector | End sector
---------------------------------------------------------
1 | 0:00.00 | 11:31.00 | 0 | 51824
2 | 11:31.00 | 8:28.46 | 51825 | 89970
3 | 19:59.46 | 7:18.67 | 89971 | 122887
4 | 27:18.38 | 8:31.42 | 122888 | 161254
5 | 35:50.05 | 8:25.19 | 161255 | 199148
6 | 44:15.24 | 12:11.64 | 199149 | 254037
Range status and errors
Selected range
Filename F:ReleaseJon Lord - Durham ConcertoJon Lord - Durham Concerto.wav
Peak level 100.0 %
Range quality 100.0 %
Test CRC 9D4103B1
Copy CRC 9D4103B1
Copy OK
No errors occurred

AccurateRip summary

Track 1 not present in database
Track 2 not present in database
Track 3 not present in database
Track 4 not present in database
Track 5 not present in database
Track 6 not present in database

None of the tracks are present in the AccurateRip database
End of status report
Download




Alternative download links

Fileserve

Related MP3 FLAC to Jon Lord - Durham Concerto(2007)
Feedback
All rights reserved.
WEBBG.com © 2000-2018