Ice MC - Disco Collection (2001)
MP3 FLAC WMA APE HD

Ice MC - Disco Collection (2001)

Artist: Ice MC
Title Of Album: Disco Collection
Year Of Release: 2001
Label: Warner Bros. / Geffen / Celestion
Genre: Eurodance
Quality: FLAC (*.flac)
Bitrate: lossless
Total Time: 73:01.29
Total Size: 605 MB
Tracklist:
01. Laika [0:04:07.08]
02. Scream [0:04:04.44]
03. Easy [0:03:46.49]
04. OK Corral [0:03:30.37]
05. Dolce Vita [0:03:52.56]
06. Gone With The Wind [0:04:46.25]
07. Cinema [0:03:39.49]
08. Think About The Way [0:04:19.07]
09. It's a Rainy Day [0:04:13.39]
10. Russian Roulette [0:04:24.69]
11. Run Fa Cover [0:04:39.20]
12. Give Me The Light [0:03:51.07]
13. Take Away The Colour [0:03:28.63]
14. The New Style 2000 [0:03:50.59]
15. Never Stop Believing [0:04:14.32]
16. Anything Can Happen [0:03:31.04]
17. Super Megamix [0:08:40.62]
Exact Audio Copy V0.99 prebeta 5 from 4. May 2009
Отчёт EAC об извлечении, выполненном 13. февраля 2011, 18:22
Ice MC / Disco Collection
Дисковод: Optiarc DVD RW AD-7201A Adapter: 0 ID: 0
Режим чтения : Достоверность
Использование точного потока : Да
Отключение кэша аудио : Да
Использование указателей C2 : Нет
Коррекция смещения при чтении : 48
Способность читать области Lead-in и Lead-out : Нет
Заполнение пропущенных сэмплов тишиной : Да
Удаление блоков с тишиной в начале и конце : Нет
При вычислениях CRC использовались нулевые сэмплы : Да
Интерфейс : Установленный внешний ASPI-интерфейс
Выходной формат : Внутренние WAV-операции
Формат сэмплов : 44.100 Гц; 16 бит; стерео
TOC извлечённого CD
Трек | Старт | Длительность | Начальный сектор | Конечный сектор
---------------------------------------------------------------------
1 | 0:00.00 | 4:07.08 | 0 | 18532
2 | 4:07.08 | 4:04.44 | 18533 | 36876
3 | 8:11.52 | 3:46.49 | 36877 | 53875
4 | 11:58.26 | 3:30.37 | 53876 | 69662
5 | 15:28.63 | 3:52.56 | 69663 | 87118
6 | 19:21.44 | 4:46.25 | 87119 | 108593
7 | 24:07.69 | 3:39.49 | 108594 | 125067
8 | 27:47.43 | 4:19.07 | 125068 | 144499
9 | 32:06.50 | 4:13.39 | 144500 | 163513
10 | 36:20.14 | 4:24.69 | 163514 | 183382
11 | 40:45.08 | 4:39.20 | 183383 | 204327
12 | 45:24.28 | 3:51.07 | 204328 | 221659
13 | 49:15.35 | 3:28.63 | 221660 | 237322
14 | 52:44.23 | 3:50.59 | 237323 | 254631
15 | 56:35.07 | 4:14.32 | 254632 | 273713
16 | 60:49.39 | 3:31.04 | 273714 | 289542
17 | 64:20.43 | 8:40.62 | 289543 | 328604
Характеристики диапазона извлечения и сообщения об ошибках
Выбранный диапазон
Имя файла S:MUZZIGGUPLOADSIce MC - Disco CollectionIce MC - Disco Collection.wav
Подозрительная позиция 0:28:52
Пиковый уровень 100.0 %
Качество диапазона 99.9 %
CRC теста 29B566F2
CRC копии 79E5489E
Копирование завершено
Были ошибки
AccurateRip: сводка
Трек 1 нет в базе данных
Трек 2 нет в базе данных
Трек 3 нет в базе данных
Трек 4 нет в базе данных
Трек 5 нет в базе данных
Трек 6 нет в базе данных
Трек 7 нет в базе данных
Трек 8 нет в базе данных
Трек 9 нет в базе данных
Трек 10 нет в базе данных
Трек 11 нет в базе данных
Трек 12 нет в базе данных
Трек 13 нет в базе данных
Трек 14 нет в базе данных
Трек 15 нет в базе данных
Трек 16 нет в базе данных
Трек 17 нет в базе данных
Ни одного трека нет в базе AccurateRip
Конец отчёта
Uploaded.to
|
Turbobit.net
|
Hotfile.com
|



Alternative download links

part 1 part 2 part 1 part 2

Related MP3 FLAC to Ice MC - Disco Collection (2001)
Feedback
All rights reserved.
WEBBG.com © 2000-2018