Youn Sun Nah - Voyage (2009)
MP3 FLAC WMA APE HD

Youn Sun Nah - Voyage (2009)

Artist: Youn Sun Nah
Title Of Album: Voyage
Year Of Release: 2009
Label: ACT Music
Genre: Jazz, Vocal Jazz
Quality: FLAC (Tracks,cue,log,scans)
Bitrate: lossless
Total Time: 55:11 min
Total Size: 253 mb (+%rec)
TRACKLIST
01 Dancing With You (Youn Sun Nah) 04:44
02 The Linden (Lars Danielsson / Lina Nyberg) 05:00
03 Calypso Blues (Nat King Cole, Don George) 04:06
04 My Bye (Youn Sun Nah / Youn Sun Nah, Natacha) 04:25
05 Jockey Full Of Bourbon (Tom Waits) 03:42
06 Voyage (Youn Sun Nah) 06:00
07 Please, Don’t Be Sad (Youn Sun Nah) 03:46
08 Shenandoah (American Folk Song) 04:32
09 Come, Come (Youn Sun Nah) 03:31
10 Frevo (Egberto Gismonti) 05:17
11 Inner Prayer (Youn Sun Nah) 05:05
12 India Song (Carlos D’Alessio / Marguerite Duras) 04:58
Exact Audio Copy V0.99 prebeta 5 from 4. May 2009
EAC extraction logfile from 11. February 2010, 13:45
Youn Sun Nah / Voyage
Used drive : HL-DT-STDVDRAM GSA-4167B Adapter: 1 ID: 1
Read mode : Secure
Utilize accurate stream : Yes
Defeat audio cache : Yes
Make use of C2 pointers : No
Read offset correction : 667
Overread into Lead-In and Lead-Out : No
Fill up missing offset samples with silence : Yes
Delete leading and trailing silent blocks : No
Null samples used in CRC calculations : Yes
Used interface : Installed external ASPI interface
Gap handling : Appended to previous track
Used output format : User Defined Encoder
Selected bitrate : 1024 kBit/s
Quality : High
Add ID3 tag : Yes
Command line compressor : E:CopyExact Audio Copy 0.99pb5flac.exe
Additional command line options : --best -V -T "date=%y" -T "genre=%m" %s
TOC of the extracted CD
Track | Start | Length | Start sector | End sector
---------------------------------------------------------
1 | 0:00.00 | 4:44.66 | 0 | 21365
2 | 4:44.66 | 5:00.67 | 21366 | 43932
3 | 9:45.58 | 4:06.32 | 43933 | 62414
4 | 13:52.15 | 4:25.33 | 62415 | 82322
5 | 18:17.48 | 3:42.05 | 82323 | 98977
6 | 21:59.53 | 6:00.70 | 98978 | 126047
7 | 28:00.48 | 3:46.23 | 126048 | 143020
8 | 31:46.71 | 4:32.36 | 143021 | 163456
9 | 36:19.32 | 3:31.24 | 163457 | 179305
10 | 39:50.56 | 5:17.71 | 179306 | 203151
11 | 45:08.52 | 5:05.25 | 203152 | 226051
12 | 50:14.02 | 4:58.40 | 226052 | 248441
Track 1
Filename E:Youn Sun Nah2008 - Voyage1 - Dancing With You.wav
Pre-gap length 0:00:02.00
Peak level 94.7 %
Track quality 100.0 %
Test CRC 209D49F0
Copy CRC 209D49F0
Accurately ripped (confidence 5) [D74B2C81]
Copy OK
Track 2
Filename E:Youn Sun Nah2008 - Voyage2 - The Linden.wav
Peak level 95.4 %
Track quality 100.0 %
Test CRC DED9BE6C
Copy CRC DED9BE6C
Accurately ripped (confidence 6) [3BF7DF96]
Copy OK
Track 3
Filename E:Youn Sun Nah2008 - Voyage3 - Calypso Blues.wav
Peak level 79.3 %
Track quality 100.0 %
Test CRC 19CA5EF8
Copy CRC 19CA5EF8
Accurately ripped (confidence 6) [3ED63DE8]
Copy OK
Track 4
Filename E:Youn Sun Nah2008 - Voyage4 - My Bye.wav
Peak level 81.9 %
Track quality 100.0 %
Test CRC 5A5B7AB1
Copy CRC 5A5B7AB1
Accurately ripped (confidence 6) [2E2CCF83]
Copy OK
Track 5
Filename E:Youn Sun Nah2008 - Voyage5 - Jockey Full Of Bourbon.wav
Peak level 78.2 %
Track quality 100.0 %
Test CRC 5FBC760A
Copy CRC 5FBC760A
Accurately ripped (confidence 6) [03F8CF12]
Copy OK
Track 6
Filename E:Youn Sun Nah2008 - Voyage6 - Voyage.wav
Peak level 87.5 %
Track quality 99.9 %
Test CRC 729DAE8A
Copy CRC 729DAE8A
Accurately ripped (confidence 6) [580AA025]
Copy OK
Track 7
Filename E:Youn Sun Nah2008 - Voyage7 - Please Don't Be Sad.wav
Peak level 97.7 %
Track quality 100.0 %
Test CRC FECA9725
Copy CRC FECA9725
Accurately ripped (confidence 6) [FD047C74]
Copy OK
Track 8
Filename E:Youn Sun Nah2008 - Voyage8 - Shenandoah.wav
Peak level 81.7 %
Track quality 100.0 %
Test CRC BB9BF3D6
Copy CRC BB9BF3D6
Accurately ripped (confidence 6) [8D4160F6]
Copy OK
Track 9
Filename E:Youn Sun Nah2008 - Voyage9 - Come, Come.wav
Peak level 61.7 %
Track quality 100.0 %
Test CRC 5DA4B44F
Copy CRC 5DA4B44F
Accurately ripped (confidence 6) [9F871743]
Copy OK
Track 10
Filename E:Youn Sun Nah2008 - Voyage10 - Frevo.wav
Peak level 100.0 %
Track quality 100.0 %
Test CRC 865938E8
Copy CRC 865938E8
Accurately ripped (confidence 6) [534356DA]
Copy OK
Track 11
Filename E:Youn Sun Nah2008 - Voyage11 - Inner Prayer.wav
Peak level 86.0 %
Track quality 100.0 %
Test CRC F7FC570D
Copy CRC F7FC570D
Accurately ripped (confidence 6) [1C1E970F]
Copy OK
Track 12
Filename E:Youn Sun Nah2008 - Voyage12 - India Song.wav
Peak level 83.6 %
Track quality 99.9 %
Test CRC EEA756A2
Copy CRC EEA756A2
Accurately ripped (confidence 6) [96677E67]
Copy OK
All tracks accurately ripped
No errors occurred
End of status report
Download
If links are broken please send me PM



Alternative download links

Uploaded

Related MP3 FLAC to Youn Sun Nah - Voyage (2009)
Feedback
All rights reserved.
WEBBG.com © 2000-2018