Vertigo - Vertigo (2003)
MP3 FLAC WMA APE HD

Vertigo - Vertigo (2003)

Free download links


Vertigo - Vertigo (2003) .zip
MP3 version ZIP archive

1341 downloads at 30 mb/s

Vertigo - Vertigo (2003) .zip
FLAC/APE version ZIP archive

943 downloads at 22 mb/s
Artist: Vertigo
Title Of Album: Vertigo
Year Of Release: 2003
Label: Frontiers Records
Genre: Melodic Hard Rock
Quality: APE (image+.cue) + log
Bitrate: Lossless
Total Time: 55:07
Total Size: 428 Mb
"Vertigo" is an album released in 2003. Includes a wonderful composition Melodic Hard Rock genre. I recommend!
Tracklist:
01. Not Enough Hours In The Night
02. Straight To Your Heart
03. More Than Enough
04. Never Let You Go
05. I Don't Want To Go
06. I Want To Be Wanted
07. China Sky
08. Love Is Blind
09. When It Doesn't Matter
10. Sarah
11. Vertigo
12. More Than Enough (Acoustic Version)
Exact Audio Copy V0.99 prebeta 4 from 23. January 2008
Отчёт EAC об извлечении, выполненном 3. августа 2011, 17:24
Vertigo / Vertigo
Дисковод: ASUS DRW-22B2L b Adapter: 0 ID: 0
Режим чтения : Достоверность
Использование точного потока : Да
Отключение кэша аудио : Да
Использование указателей C2 : Нет
Коррекция смещения при чтении : 6
Способность читать области Lead-in и Lead-out : Нет
Заполнение пропущенных сэмплов тишиной : Да
Удаление блоков с тишиной в начале и конце : Нет
При вычислениях CRC использовались нулевые сэмплы : Да
Интерфейс : Встроенный Win32-интерфейс для Win NT/2000
Выходной формат : Внутренние WAV-операции
Формат сэмплов : 44.100 Гц; 16 бит; стерео
TOC извлечённого CD
Трек | Старт | Длительность | Начальный сектор | Конечный сектор
---------------------------------------------------------------------
1 | 0:00.00 | 4:11.31 | 0 | 18855
2 | 4:11.31 | 3:51.00 | 18856 | 36180
3 | 8:02.31 | 5:04.63 | 36181 | 59043
4 | 13:07.19 | 4:38.14 | 59044 | 79907
5 | 17:45.33 | 5:23.01 | 79908 | 104133
6 | 23:08.34 | 4:05.62 | 104134 | 122570
7 | 27:14.21 | 4:38.13 | 122571 | 143433
8 | 31:52.34 | 3:42.22 | 143434 | 160105
9 | 35:34.56 | 3:58.33 | 160106 | 177988
10 | 39:33.14 | 4:48.31 | 177989 | 199619
11 | 44:21.45 | 5:23.32 | 199620 | 223876
12 | 49:45.02 | 5:22.58 | 223877 | 248084
Характеристики диапазона извлечения и сообщения об ошибках
Выбранный диапазон
Имя файла C:Documents and SettingsbooddoomРабочий столНовая папкаVertigo - Vertigo.wav
Пиковый уровень 98.1 %
Качество диапазона 100.0 %
CRC теста 87EB6540
CRC копии 87EB6540
Копирование... OK
Ошибок не произошло
AccurateRip: сводка
Трек 1 точное извлечение (доверие 5) [0E4F4893]
Трек 2 точное извлечение (доверие 5) [BB9FE07B]
Трек 3 точное извлечение (доверие 5) [06172151]
Трек 4 точное извлечение (доверие 5) [34F4DE69]
Трек 5 точное извлечение (доверие 5) [597D39F5]
Трек 6 точное извлечение (доверие 5) [90B37C38]
Трек 7 точное извлечение (доверие 5) [E154AEAA]
Трек 8 точное извлечение (доверие 5) [BB580777]
Трек 9 точное извлечение (доверие 5) [C8AE717C]
Трек 10 точное извлечение (доверие 5) [7A7F20FF]
Трек 11 точное извлечение (доверие 5) [2EB2754A]
Трек 12 точное извлечение (доверие 5) [E20E3AA8]
Все треки извлечены точно
Конец отчёта
FileSonic
Wupload



Alternative download links

DOWNLOAD

Related MP3 FLAC to Vertigo - Vertigo (2003)
Feedback
All rights reserved.
WEBBG.com © 2000-2018