Neronia - Nerotica (2003)
MP3 FLAC WMA APE HD

Neronia - Nerotica (2003)

Artist: Neronia
Title Of Album: Nerotica
Year Of Release: 2003
Label: Nova Entertainment
Genre: Progressive rock, Heavy-Neo progressive
Quality: APE (image+.cue) + log
Bitrate: Lossless
Total Time: 60:52
Total Size: 430 Mb
Progressive rock from Germany.
Tracklist:
1. Fast way (4:57)
2. In the mirror (7:11)
3. One moment (7:26)
4. Frost (8:50)
5. Naked pale (6:17)
6. Snow angels (3:25)
7. Feeling blue (5:58)
8. Drenched in tears (6:07)
9. She cat (10:41)11. июня 2011, 22:37
Exact Audio Copy V0.99 prebeta 3 from 28. July 2007
Отчёт EAC об извлечении, выполненном 11. июня 2011, 22:37
Neronia / Nerotica
Дисковод: PLEXTOR CD-R PX-230A Adapter: 0 ID: 1
Режим чтения : Достоверность
Использование точного потока : Да
Отключение кэша аудио : Да
Использование указателей C2 : Нет
Коррекция смещения при чтении : 738
Способность читать области Lead-in и Lead-out : Нет
Заполнение пропущенных сэмплов тишиной : Да
Удаление блоков с тишиной в начале и конце : Нет
При вычислениях CRC использовались нулевые сэмплы : Нет
Интерфейс : Встроенный Win32-интерфейс для Win NT/2000
Выходной формат : Внутренние WAV-операции
Формат сэмплов : 44.100 Гц; 16 бит; стерео
TOC извлечённого CD
Трек | Старт | Длительность | Начальный сектор | Конечный сектор
---------------------------------------------------------------------
1 | 0:00.00 | 4:58.73 | 0 | 22422
2 | 4:58.73 | 7:13.20 | 22423 | 54917
3 | 12:12.18 | 7:27.40 | 54918 | 88482
4 | 19:39.58 | 8:51.65 | 88483 | 128372
5 | 28:31.48 | 6:19.23 | 128373 | 156820
6 | 34:50.71 | 3:54.05 | 156821 | 174375
7 | 38:45.01 | 6:00.31 | 174376 | 201406
8 | 44:45.32 | 6:09.38 | 201407 | 229119
9 | 50:54.70 | 10:40.38 | 229120 | 277157
Характеристики диапазона извлечения и сообщения об ошибках
Выбранный диапазон
Имя файла I:NeroniaNeronia - Nerotica.wav
Пиковый уровень 99.0 %
Качество диапазона 100.0 %
CRC копии 1AE5597F
Копирование... OK
Ошибок не произошло
Конец отчёта
FileSonic
Wupload



Alternative download links

DOWNLOAD

Related MP3 FLAC to Neronia - Nerotica (2003)
Feedback
All rights reserved.
WEBBG.com © 2000-2018