Fausto Papetti - The Very Best Of (1991)
MP3 FLAC WMA APE HD

Fausto Papetti - The Very Best Of (1991)

Artist: Fausto Papetti
Title Of Album: The Very Best Of
Year Of Release: 1991
Genre: Instrmental, Sax, Easy Listening
Quality: APE (Img,cue,log,scans)|MP3
Bitrate: lossless | 320kbps
Total Time: 47:22 min
Total Size: 254 mb/127 mb
TRACKLIST
01. Georgia On My Mind [0:02:36.42]
02. Danny Boy [0:02:18.43]
03. Summertime [0:02:24.67]
04. In A Sentimental Mood [0:02:27.58]
05. Smoke Gets In Your Eyes [0:02:31.42]
06. Run To Me [0:02:53.30]
07. Hard To Say I'm Sorry [0:04:00.43]
08. Strangers In The Night [0:02:36.72]
09. Arthur's Theme [0:04:07.38]
10. Cabaret [0:02:42.65]
11. Sleepy Shores [0:02:58.00]
12. Petite Fleur [0:03:35.12]
13. The Shadow Of Your Smile [0:02:27.53]
14. Un Homme Et Une Femme [0:03:05.37]
15. Isn't She Lovely [0:03:25.55]
16. Windmills On Your Mind [0:03:09.31]
Exact Audio Copy V0.99 prebeta 5 from 4. May 2009
EAC extraction logfile from 20. November 2009, 22:09
Fausto Papetti / The Very Best of Fausto Papetti
Used drive : Optiarc DVD RW AD-7203S Adapter: 3 ID: 0
Read mode : Secure
Utilize accurate stream : Yes
Defeat audio cache : No
Make use of C2 pointers : Yes
Read offset correction : 48
Overread into Lead-In and Lead-Out : No
Fill up missing offset samples with silence : Yes
Delete leading and trailing silent blocks : No
Null samples used in CRC calculations : Yes
Used interface : Installed external ASPI interface
Used output format : Monkey's Audio Lossless Encoder v3.99 DLL
Sample format : High Lossless Compression
Use compression offset : 0
TOC of the extracted CD
Track | Start | Length | Start sector | End sector
---------------------------------------------------------
1 | 0:00.00 | 2:36.42 | 0 | 11741
2 | 2:36.42 | 2:18.43 | 11742 | 22134
3 | 4:55.10 | 2:24.67 | 22135 | 33001
4 | 7:20.02 | 2:27.58 | 33002 | 44084
5 | 9:47.60 | 2:31.42 | 44085 | 55451
6 | 12:19.27 | 2:53.30 | 55452 | 68456
7 | 15:12.57 | 4:00.43 | 68457 | 86499
8 | 19:13.25 | 2:36.72 | 86500 | 98271
9 | 21:50.22 | 4:07.38 | 98272 | 116834
10 | 25:57.60 | 2:42.65 | 116835 | 129049
11 | 28:40.50 | 2:58.00 | 129050 | 142399
12 | 31:38.50 | 3:35.12 | 142400 | 158536
13 | 35:13.62 | 2:27.53 | 158537 | 169614
14 | 37:41.40 | 3:05.37 | 169615 | 183526
15 | 40:47.02 | 3:25.55 | 183527 | 198956
16 | 44:12.57 | 3:09.23 | 198957 | 213154
Range status and errors
Selected range
Filename H:AUDIO - IIFausto Papetti - The Very Best Of Fausto Papetti - The Very Best of Fausto Papetti.ape
Peak level 96.7 %
Range quality 100.0 %
Copy CRC 7B50A8F1
Copy OK
No errors occurred

AccurateRip summary

Track 1 not present in database
Track 2 not present in database
Track 3 not present in database
Track 4 not present in database
Track 5 not present in database
Track 6 not present in database
Track 7 not present in database
Track 8 not present in database
Track 9 not present in database
Track 10 not present in database
Track 11 not present in database
Track 12 not present in database
Track 13 not present in database
Track 14 not present in database
Track 15 not present in database
Track 16 not present in database

None of the tracks are present in the AccurateRip database
End of status report
Download




Alternative download links

Bitshare

Related MP3 FLAC to Fausto Papetti - The Very Best Of (1991)
Feedback
All rights reserved.
WEBBG.com © 2000-2018