Kharma - Wonderland (2000)
MP3 FLAC WMA APE HD

Kharma - Wonderland (2000)

Artist: Kharma
Title Of Album: Wonderland
Year Of Release: 2000
Label: Major MTM Music
Genre: Melodic Hard Rock
Quality: APE (image+.cue) + log
Bitrate: Lossless
Total Time: 66:31
Total Size: 509 Mb
Melodic hard rock from Sweden.
Tracklist:
01. Free Yourself
02. Wonderland
03. Knowing You
04. Burn Forever
05. In Chains
06. Standing Alone
07. Part Time Lovers
08. Angel Eyes
09. Ray of Sunshine
10. Spell On You
11. Don`t Close Your Eyes
12. Hold On
13. Wings of History
Exact Audio Copy V0.99 prebeta 4 from 23. January 2008
Отчёт EAC об извлечении, выполненном 26. января 2011, 14:14
Kharma / Wonderland
Дисковод: _NEC DVD_RW ND-3550A Adapter: 0 ID: 0
Режим чтения : Достоверность
Использование точного потока : Да
Отключение кэша аудио : Да
Использование указателей C2 : Нет
Коррекция смещения при чтении : 48
Способность читать области Lead-in и Lead-out : Нет
Заполнение пропущенных сэмплов тишиной : Да
Удаление блоков с тишиной в начале и конце : Нет
При вычислениях CRC использовались нулевые сэмплы : Да
Интерфейс : Встроенный Win32-интерфейс для Win NT/2000
Выходной формат : Внутренние WAV-операции
Формат сэмплов : 44.100 Гц; 16 бит; стерео
TOC извлечённого CD
Трек | Старт | Длительность | Начальный сектор | Конечный сектор
---------------------------------------------------------------------
1 | 0:00.00 | 5:24.32 | 0 | 24331
2 | 5:24.32 | 4:44.55 | 24332 | 45686
3 | 10:09.12 | 4:24.65 | 45687 | 65551
4 | 14:34.02 | 5:15.15 | 65552 | 89191
5 | 19:49.17 | 6:13.60 | 89192 | 117226
6 | 26:03.02 | 3:26.58 | 117227 | 132734
7 | 29:29.60 | 4:58.70 | 132735 | 155154
8 | 34:28.55 | 5:06.35 | 155155 | 178139
9 | 39:35.15 | 6:19.25 | 178140 | 206589
10 | 45:54.40 | 5:13.22 | 206590 | 230086
11 | 51:07.62 | 4:53.08 | 230087 | 252069
12 | 56:00.70 | 5:32.67 | 252070 | 277036
13 | 61:33.62 | 4:57.28 | 277037 | 299339
Характеристики диапазона извлечения и сообщения об ошибках
Выбранный диапазон
Имя файла C:Documents and SettingsbooddoomРабочий столНовая папкаKharma - Wonderland.wav
Пиковый уровень 99.9 %
Качество диапазона 100.0 %
CRC теста 7DBF8747
CRC копии 7DBF8747
Копирование... OK
Ошибок не произошло
AccurateRip: сводка
Трек 1 точное извлечение (доверие 3) [CDC306B1]
Трек 2 точное извлечение (доверие 3) [4E548935]
Трек 3 точное извлечение (доверие 3) [9B54DE89]
Трек 4 точное извлечение (доверие 3) [3DABB77C]
Трек 5 точное извлечение (доверие 3) [FF190EDC]
Трек 6 точное извлечение (доверие 3) [E935008D]
Трек 7 точное извлечение (доверие 3) [09F0D3E4]
Трек 8 точное извлечение (доверие 3) [0E0519CD]
Трек 9 точное извлечение (доверие 3) [77B8B0D3]
Трек 10 точное извлечение (доверие 3) [92967032]
Трек 11 точное извлечение (доверие 3) [554BE5F6]
Трек 12 точное извлечение (доверие 3) [573D8C85]
Трек 13 точное извлечение (доверие 3) [D0D99F6E]
Все треки извлечены точно
Конец отчёта
FileSonic
Wupload



Alternative download links

DOWNLOAD

Related MP3 FLAC to Kharma - Wonderland (2000)
Feedback
All rights reserved.
WEBBG.com © 2000-2018