Baker Gurvitz Army - The Baker Gurvitz Army (1974)
MP3 FLAC WMA APE HD

Baker Gurvitz Army - The Baker Gurvitz Army (1974)

Artist: Baker Gurvitz Army
Title Of Album: The Baker Gurvitz Army
Year Of Release: 1974
Label: Strange Days Records (Japan), WAS-1073
Genre: Hard/Blues/Progressive Rock
Quality: Lossless
Bitrate: FLAC image + cue + log + scans
Total Time: 00:42:54
Total Size: 267 MB (3% rec.)
Baker Gurvitz Army was an English rock group. Their self-titled debut album featured a blend of hard rock laced with Baker's unmistakable drumming (ex-Cream). The lengthy "Mad Jack" was the album's outstanding track and the album hit the American charts.
Tracklist
1. Help Me [04:36]
2. Love Is [02:54]
3. Memory Lane [04:50]
4. Inside Of Me [05:37]
5. I Wanna Live Again [04:31]
6. Mad Jack [07:57]
7. Phil [04:24]
8. Since Beginning [08:05]
Total time 00:42:54
Originally released at Vertigo / 9103 201 / 1974.
Reissued by Strange Days Records, 2005.12.20, under British Rock Masterpiece, part 7 (Underground Hard Rock & Blues).
Exact Audio Copy V0.99 prebeta 4 from 23. January 2008
EAC extraction logfile from 31. December 2008, 12:52
The Baker Gurvitz Army / The Baker Gurvitz Army
Used drive : TSSTcorpCD/DVDW SH-W162C Adapter: 0 ID: 0
Read mode : Secure
Utilize accurate stream : Yes
Defeat audio cache : Yes
Make use of C2 pointers : No
Read offset correction : 6
Overread into Lead-In and Lead-Out : No
Fill up missing offset samples with silence : Yes
Delete leading and trailing silent blocks : No
Null samples used in CRC calculations : Yes
Used interface : Installed external ASPI interface
Used output format : Internal WAV Routines
Sample format : 44.100 Hz; 16 Bit; Stereo
TOC of the extracted CD
Track | Start | Length | Start sector | End sector
---------------------------------------------------------
1 | 0:00.00 | 4:36.41 | 0 | 20740
2 | 4:36.41 | 2:54.23 | 20741 | 33813
3 | 7:30.64 | 4:50.08 | 33814 | 55571
4 | 12:20.72 | 5:37.73 | 55572 | 80919
5 | 17:58.70 | 4:31.55 | 80920 | 101299
6 | 22:30.50 | 7:57.66 | 101300 | 137140
7 | 30:28.41 | 4:24.30 | 137141 | 156970
8 | 34:52.71 | 8:04.47 | 156971 | 193317
Range status and errors
Selected range
Filename C:The Baker Gurvitz Army The Baker Gurvitz ArmyThe Baker Gurvitz Army - The Baker Gurvitz Army.wav
Peak level 100.0 %
Range quality 100.0 %
Copy CRC 191F1623
Copy OK
No errors occurred
End of status report
Download:
(filesonic.com)
(uploaded.to)





Alternative download links

Download

Related MP3 FLAC to Baker Gurvitz Army - The Baker Gurvitz Army (1974)
Feedback
All rights reserved.
WEBBG.com © 2000-2018